<?xml version="1.0" standalone="no"?>
<!DOCTYPE svg PUBLIC "-//W3C//DTD SVG 1.1//EN" "http://www.w3.org/Graphics/SVG/1.1/DTD/svg11.dtd" >
<svg xmlns="http://www.w3.org/2000/svg">
<metadata>Generated by IcoMoon</metadata>
<defs>
<font id="dpicons" horiz-adv-x="1024">
<font-face units-per-em="1024" ascent="960" descent="-64" />
<missing-glyph horiz-adv-x="1024" />
<glyph unicode="&#x20;" horiz-adv-x="512" d="" />
<glyph unicode="&#xe1cc;" glyph-name="ferry" d="M256 682.667v-170l256 84 256-84v170h-512zM168 128.667l-80 284q-14 40 28 54l54 18v198q0 34 26 60t60 26h128v128h256v-128h128q34 0 60-26t26-60v-198l54-18q42-14 28-54l-80-284h-2q-98 0-172 84-74-84-170-84t-170 84q-74-84-172-84h-2zM854 42.667h84v-86h-84q-90 0-172 42-170-88-340 0-82-42-172-42h-84v86h84q92 0 172 56 78-54 170-54t170 54q80-56 172-56z" />
<glyph unicode="&#xe1ce;" glyph-name="train" d="M768 512.667v212h-512v-212h512zM512 212.667q34 0 60 26t26 60-26 60-60 26-60-26-26-60 26-60 60-26zM170 276.667v448q0 102 88 137t254 35 254-35 88-137v-448q0-62-44-105t-106-43l64-64v-22h-512v22l64 64q-62 0-106 43t-44 105z" />
<glyph unicode="&#xe1d0;" glyph-name="walk" d="M418 558.667l-120-602h90l78 342 88-86v-256h86v320l-90 86 26 128q92-106 234-106v84q-124 0-182 104l-44 68q-30 42-72 42-6 0-17-2t-17-2l-222-94v-200h86v144l76 30zM576 704.667q-34 0-60 25t-26 59 26 60 60 26 60-26 26-60-26-59-60-25z" />
<glyph unicode="&#xe1d2;" glyph-name="rest" d="M810 640.667q70 0 121-51t51-121v-384h-86v128h-768v-128h-86v640h86v-384h342v300h340zM298 384.667q-52 0-90 38t-38 90 38 90 90 38 90-38 38-90-38-90-90-38z" />
<glyph unicode="&#xe1d3;" glyph-name="bicycle" d="M810 64.667q62 0 106 43t44 105-44 106-106 44-105-44-43-106 43-105 105-43zM810 426.667q90 0 152-62t62-152-62-151-152-61-151 61-61 151 61 152 151 62zM460 490.667l94-98v-264h-84v212l-138 120q-24 16-24 60 0 36 24 60l120 120q16 24 60 24 38 0 68-24l82-82q64-64 152-64v-86q-126 0-216 90l-34 34zM214 64.667q62 0 105 43t43 105-43 106-105 44-106-44-44-106 44-105 106-43zM214 426.667q90 0 151-62t61-152-61-151-151-61-152 61-62 151 62 152 152 62zM662 704.667q-34 0-60 25t-26 59 26 60 60 26 59-26 25-60-25-59-59-25z" />
<glyph unicode="&#xe243;" glyph-name="cake" d="M768 554.667q52 0 90-38t38-90v-66q0-34-25-59t-59-25-58 24l-92 92-92-92q-24-24-59-24t-59 24l-90 92-92-92q-24-24-58-24t-59 25-25 59v66q0 52 38 90t90 38h214v86h84v-86h214zM708 256.667q44-44 104-44 44 0 84 26v-196q0-18-12-30t-30-12h-684q-18 0-30 12t-12 30v196q38-26 84-26 60 0 104 44l46 46 46-46q42-42 104-42t104 42l46 46zM512 682.667q-34 0-60 26t-26 60q0 22 14 44l72 126 72-126q14-22 14-44 0-34-25-60t-61-26z" />
<glyph unicode="&#xe25a;" glyph-name="share" d="M768 252.667q52 0 88-37t36-87q0-52-37-89t-87-37-87 37-37 89q0 20 2 28l-302 176q-38-34-88-34-52 0-90 38t-38 90 38 90 90 38q50 0 88-34l300 174q-4 20-4 30 0 52 38 90t90 38 90-38 38-90-38-90-90-38q-48 0-88 36l-300-176q4-20 4-30t-4-30l304-176q36 32 84 32z" />
<glyph unicode="&#xe600;" glyph-name="feedly" d="M588.13 864.756c-43.492 43.492-114.657 43.492-158.143 0l-397.368-397.368c-43.492-43.492-43.492-114.657 0-158.155l283.549-283.549c19.748-17.197 45.552-27.623 73.796-27.623h238.207c31.043 0 59.138 12.58 79.481 32.917l278.063 278.063c43.492 43.498 43.492 114.663 0 158.155l-397.585 397.56zM299.548 337.166c-2.898-2.911-6.907-4.704-11.332-4.704h-33.991c-4.022 0-7.708 1.489-10.519 3.941l-40.464 40.457c-6.206 6.2-6.206 16.359 0 22.565l294.533 294.527c6.206 6.206 16.353 6.206 22.559 0l56.73-56.723c6.206-6.206 6.206-16.359 0-22.565l-277.516-277.498zM577.058 138.988l-39.675-39.675c-2.898-2.898-6.907-4.698-11.332-4.698h-33.991c-4.034 0-7.708 1.489-10.532 3.953l-40.451 40.451c-6.206 6.2-6.206 16.359 0 22.565l56.692 56.699c6.206 6.194 16.365 6.194 22.559 0l56.73-56.73c6.206-6.206 6.206-16.359 0-22.565zM577.058 376.823l-158.596-158.596c-2.898-2.898-6.907-4.692-11.332-4.692h-33.991c-4.022 0-7.708 1.489-10.519 3.941l-40.464 40.451c-6.206 6.212-6.206 16.365 0 22.571l175.613 175.607c6.206 6.212 16.365 6.212 22.571 0l56.717-56.723c6.206-6.206 6.206-16.353 0-22.559z" />
<glyph unicode="&#xe601;" glyph-name="ok-circled" d="M486.4-51.2c-129.922 0-252.067 50.594-343.936 142.464s-142.464 214.014-142.464 343.936c0 129.923 50.595 252.067 142.464 343.936s214.013 142.464 343.936 142.464c129.922 0 252.067-50.595 343.936-142.464s142.464-214.014 142.464-343.936-50.594-252.067-142.464-343.936c-91.869-91.87-214.014-142.464-343.936-142.464zM486.4 870.4c-239.97 0-435.2-195.23-435.2-435.2s195.23-435.2 435.2-435.2 435.2 195.23 435.2 435.2-195.23 435.2-435.2 435.2zM384 230.4c-6.552 0-13.102 2.499-18.102 7.499l-153.6 153.6c-9.997 9.997-9.997 26.206 0 36.203 9.998 9.997 26.206 9.997 36.205 0l135.498-135.498 340.299 340.298c9.997 9.997 26.206 9.997 36.203 0 9.998-9.998 9.998-26.206 0-36.205l-358.4-358.4c-5-4.998-11.55-7.498-18.102-7.498z" />
<glyph unicode="&#xe602;" glyph-name="cloud-upload" horiz-adv-x="1120" d="M941.632 462.88c0 0 20.768 279.776-235.552 311.68-219.68 22.432-286.56-181.728-286.56-181.728s-66.144 63.616-155.904 11.648c-80.352-49.6-66.144-140.416-66.144-140.416s-178.432-34.688-178.432-216.576c3.968-181.664 193.728-183.488 193.728-183.488h299.232v192h-96l160 160 160-160h-96v-192h270.944c0 0 176.64-0.192 201.44 172.64 11.808 188.992-170.752 226.24-170.752 226.24z" />
<glyph unicode="&#xe603;" glyph-name="cloud-download" horiz-adv-x="1120" d="M941.632 462.88c0 0 20.736 279.776-235.552 311.68-219.712 22.432-286.56-181.728-286.56-181.728s-66.144 63.616-155.936 11.648c-80.32-49.6-66.144-140.416-66.144-140.416s-178.432-34.656-178.432-216.576c4-181.664 193.76-183.488 193.76-183.488h363.232l-160 160h96v192h128v-192h96l-160-160h334.944c0 0 176.64-0.192 201.44 172.64 11.808 188.992-170.752 226.24-170.752 226.24z" />
<glyph unicode="&#xe604;" glyph-name="mail-alt" d="M512.527 310.502l-143.325 117.666-311.923-368.275h910.777l-311.958 371.935-143.572-121.326zM1002.164 762.513h-979.025l489.531-411.743 489.496 411.743zM677.605 450.379l327.022-390.133v667.067l-327.022-276.936zM19.372 727.314v-667.067l327.022 390.133-327.022 276.936z" />
<glyph unicode="&#xe605;" glyph-name="edit" d="M330.633 372.746l-75.322-193.335 189.993 78.663-114.67 114.67zM882.132 785.67l-24.107 24.107c-26.596 26.63-69.798 26.63-96.428 0l-48.215-48.215 120.536-120.57 48.215 48.215c26.664 26.63 26.664 69.832 0 96.462zM334.453 382.6l17.253 17.253 120.536-120.536 337.568 337.568-120.536 120.536 24.107 24.141-378.929-378.964zM750.821 106.885l-580.549-0.204 0.102 580.549 406.481 0.136 63.694 67.514h-504.819c-18.822 0-34.098-15.241-34.098-34.098v-647.859c0-18.856 15.275-34.098 34.098-34.098h647.859c18.856 0 34.098 15.241 34.098 34.098v479.347l-68.707-67.412 1.842-377.975z" />
<glyph unicode="&#xe606;" glyph-name="resize-exit-alt" d="M877.024 707.776l-85.28 85.28-157.6-157.6-122.080 122.080-0.128-309.76 311.136 0.544-103.616 101.856 157.568 157.6zM274.464 307.744l-142.496-142.496 85.28-85.312 142.496 142.56 119.424-119.424 0.128 311.488-313.088 1.44 108.256-108.256z" />
<glyph unicode="&#xe607;" glyph-name="resize-full-alt" d="M831.68 766.656l-0.128-311.52-119.424 119.456-142.528-142.56-85.28 85.28 142.528 142.528-108.288 108.256 313.12-1.44zM367.808 230.24l103.616-101.824-311.104-0.544 0.128 309.76 122.080-122.080 157.6 157.568 85.28-85.28-157.6-157.6z" />
<glyph unicode="&#xe608;" glyph-name="headphones" d="M768 48v64h-0.8c0.288 5.312 0.8 10.592 0.8 16v352c0 150.208-121.792 272-272 272s-272-121.792-272-272v-352c0-5.408 0.512-10.688 0.8-16h-0.8v-64c0 0-160 2.688-160 176 0 98.304 51.424 141.664 96 160.8v95.2c0 185.568 150.432 336 336 336s336-150.432 336-336v-95.2c44.576-19.168 96-62.496 96-160.8 0-173.312-160-176-160-176zM288 48h-32v352h32v-352zM736 48h-32v352h32v-352z" />
<glyph unicode="&#xe609;" glyph-name="phone" d="M521.901 290.766c-0.859 0.595-100.22 167.639-100.55 169.786-20.546 44.891-37.128 90.806-2.577 111.187l-143.393 241.796c-37.161-27.78-142.27-178.539 54.47-520.192 207.244-360.052 404.48-345.088 444.020-320.71l-139.726 236.015c-33.032-19.423-60.845 12.585-112.244 82.118zM869.764 64.264l0.033 0.198c0 0-109.106 183.858-109.172 183.924-8.654 14.567-27.252 19.159-41.753 10.702l-66.857-39.54 140.123-236.709c0 0 66.857 39.341 66.824 39.474h0.132c15.36 9.117 18.894 27.945 10.669 41.951zM503.899 621.882v0.132c15.36 9.084 18.961 27.912 10.735 41.786l0.066 0.198c0 0-112.244 189.242-112.31 189.275-8.621 14.633-27.285 19.159-41.72 10.702l-66.857-39.54 143.228-241.928c0 0 66.824 39.275 66.857 39.374z" />
<glyph unicode="&#xe60a;" glyph-name="open" d="M896-32h-768c-53.024 0-96 43.008-96 96v448c0 53.024 42.976 96 96 96h768c52.992 0 96-42.976 96-96v-448c0-52.992-43.008-96-96-96zM256 382.688c-53.024 0-96-50.144-96-112 0-61.888 42.976-112 96-112 52.992 0 96 50.112 96 112 0 61.856-43.008 112-96 112zM504.96 355.264c-3.68 7.584-8.608 13.504-14.656 17.696-6.080 4.224-13.632 7.072-22.624 8.576-6.4 1.184-15.68 1.76-27.84 1.76h-57.056v-221.248h32.256v64.512h26.944c25.92 0 43.776 11.392 53.728 22.176 9.888 10.816 14.848 57.984 14.848 73.568-0.032 9.024-1.888 25.376-5.6 32.96zM672.768 193.76h-97.856v64.256h94.592v29.76h-94.592v65.76h97.6v29.76h-127.84v-221.248h128.096v31.712zM862.528 383.264h-29.248v-169.92l-96.384 169.92h-32.864v-221.248h31.264v161.952l96.384-161.952h30.88v221.248zM442.336 258.24h-27.296v95.264h26.816c10.976 0 18.496-0.544 22.592-1.632 6.304-1.76 11.424-5.312 15.296-10.752s5.824-12 5.824-19.616c0-10.56-3.296-48.704-9.888-54.528s-17.696-8.736-33.344-8.736zM256 188c-35.328 0-64 35.808-64 80s28.672 80 64 80 64-35.808 64-80-28.672-80-64-80zM800 608l-234.304 174.4c-11.008-8.864-24.8-14.4-40-14.4-21.184 0-39.808 10.4-51.424 26.272l-250.272-186.272h-32l271.776 208.576c-1.216 4.96-2.080 10.080-2.080 15.424 0 35.328 28.672 64 64 64 35.36 0 64-28.672 64-64 0-11.488-3.296-22.144-8.608-31.488l250.912-192.512h-32z" />
<glyph unicode="&#xe60b;" glyph-name="sale" d="M896-32h-768c-53.024 0-96 43.008-96 96v448c0 53.024 42.976 96 96 96h64l271.776 208.576c-1.216 4.96-2.048 10.080-2.048 15.424 0 35.328 28.672 64 64 64s63.968-28.672 63.968-64c0-11.488-3.264-22.144-8.608-31.488l250.912-192.512h64c52.992 0 96-42.976 96-96v-448c0-52.992-43.008-96-96-96zM546.272 173.344h128.992v24.256h-101.76v182.016h-27.264v-206.272zM361.696 173.344l22.592 62.496h86.656l23.744-62.496h31.104l-84.096 206.24h-29.568l-79.296-206.24h28.864zM170.944 355.392c-5.888-9.088-8.832-18.848-8.832-29.248 0-9.504 2.4-18.048 7.232-25.728s12.16-14.048 21.984-19.264c7.552-4.032 20.768-8.32 39.648-12.864s31.072-7.904 36.608-10.048c8.608-3.328 14.784-7.328 18.592-12.16s5.728-10.432 5.728-16.896c0-6.336-1.952-12.256-5.824-17.664s-9.792-9.664-17.76-12.768c-7.936-3.136-17.088-4.672-27.456-4.672-11.68 0-22.176 2.016-31.52 6.144-9.376 4.064-16.256 9.44-20.672 16.096s-7.296 15.168-8.512 25.504l-25.76-2.24c0.384-13.792 4.16-26.112 11.328-37.024 7.168-10.944 17.024-19.136 29.6-24.576 12.608-5.44 28.192-8.16 46.816-8.16 14.656 0 27.872 2.688 39.616 8.096 11.744 5.376 20.736 12.864 27.008 22.592 6.272 9.696 9.408 20 9.408 30.976 0 11.040-2.88 20.768-8.608 29.248-5.728 8.512-14.592 15.488-26.624 20.992-8.288 3.744-23.456 8.128-45.536 13.12-22.112 5.024-35.776 9.952-40.992 14.752-5.344 4.736-8 10.848-8 18.24 0 8.576 3.776 15.84 11.296 21.888s19.488 9.088 35.936 9.088c15.808 0 27.744-3.328 35.808-9.92 8.096-6.624 12.8-16.416 14.208-29.344l26.24 1.984c-0.48 12.096-3.84 22.912-10.080 32.448-6.272 9.536-15.232 16.768-26.88 21.696s-25.088 7.36-40.352 7.36c-13.856 0-26.432-2.336-37.76-7.040-11.392-4.672-20-11.52-25.888-20.608zM565.696 782.4c-11.008-8.864-24.768-14.4-39.968-14.4-21.184 0-39.808 10.4-51.456 26.272l-250.272-186.272h576l-234.304 174.4zM861.952 197.6h-126.496v70.24h113.984v24.256h-113.984v63.264h121.76v24.256h-148.992v-206.24h153.76v24.224zM426.048 358.080c3.328-11.296 8.192-25.6 14.624-42.976l21.728-57.024h-70.368l22.88 60.384c4.704 13.024 8.416 26.24 11.136 39.616z" />
<glyph unicode="&#xe60c;" glyph-name="diamond" d="M67.296 574.336l428.736-532.128-171.936 532.128h-256.8zM370.688 574.336l151.84-533.216 130.656 533.216h-282.496zM545.632 42.208l412.736 532.128h-254.816l-157.92-532.128zM959.328 609.152l-123.744 211.584-123.808-211.584h247.552zM796.672 832.864h-247.552l123.744-218.848 123.808 218.848zM634.816 609.152l-123.744 211.584-123.776-211.584h247.52zM474.848 832.864h-247.52l123.776-218.848 123.744 218.848zM188.448 820.736l-123.744-211.584h247.52l-123.776 211.584z" />
<glyph unicode="&#xe60d;" glyph-name="tablet" d="M736.032 800h-480c-35.36 0-64.032-28.672-64.032-64v-640c0-35.328 28.672-64 64.032-64h480c35.328 0 63.968 28.672 63.968 64v640c0 35.328-28.64 64-63.968 64zM496 64c-17.664 0-31.968 14.304-31.968 32s14.304 32 31.968 32c17.696 0 32.032-14.304 32.032-32s-14.336-32-32.032-32zM735.712 161.984h-480.832v573.184h480.832v-573.184z" />
<glyph unicode="&#xe60e;" glyph-name="music" d="M862.336 798.784c-171.584-3.392-370.368-33.12-541.984-89.216-0.096 1.12 0.64-509.696 0.64-509.696-30.976 7.008-65.984 2.944-102.752-13.824-68.224-31.008-105.44-93.696-83.104-140 22.336-46.368 95.744-58.816 163.968-27.744 62.368 33.44 82.432 63.68 84.48 107.424l1.536 442.624c135.232 39.776 278.24 63.36 413.536 70.656v-395.712c-31.328 7.68-72.832 3.808-110.432-13.248-68.224-31.072-105.44-93.76-83.104-140.064 22.336-46.368 95.744-58.752 164-27.744 48.512 22.048 87.328 60.128 94.176 96.928 0.032 0.032-1.632 640.48-0.96 639.616z" />
<glyph unicode="&#xe60f;" glyph-name="picture" d="M626.272 612.576l-100.608-151.424-73.12 73.696-73.152-118.304-54.848 54.304-59.392-118.848h466.304l-105.184 260.576zM128 800v-736h736v736h-736zM800 288h-608v448h608v-448zM335.712 541.728c26.528 0 48 21.472 48 48s-21.472 48-48 48c-26.496 0-48-21.472-48-48s21.504-48 48-48z" />
<glyph unicode="&#xe610;" glyph-name="pictures" horiz-adv-x="1040" d="M851.328 13.216l-83.968 23.040-0.192 232.256 80.32-22.592 115.808 432.288-586.624 157.184-38.656-144.192h-66.176l59.616 222.464 710.176-190.272-190.304-710.176zM737.248-64h-737.248v735.264h737.248v-735.264zM673.312 607.328h-609.376v-447.52h609.376v447.52zM251.168 288.224l73.056 118.144 73.056-73.632 100.448 151.264 105.056-260.288h-465.792l59.36 118.72 54.816-54.208zM207.488 413.248c-26.496 0-47.968 21.44-47.968 47.936s21.472 47.936 47.968 47.936 47.936-21.44 47.936-47.936-21.44-47.936-47.936-47.936z" />
<glyph unicode="&#xe611;" glyph-name="th" d="M197.977 597.012h165.012v165.012h-165.012v-165.012zM445.493 597.012h165.012v165.012h-165.012v-165.012zM693.012 762.023v-165.012h165.012v165.012h-165.012zM197.977 349.493h165.012v165.012h-165.012v-165.012zM445.493 349.493h165.012v165.012h-165.012v-165.012zM693.012 349.493h165.012v165.012h-165.012v-165.012zM197.977 101.977h165.012v165.012h-165.012v-165.012zM445.493 101.977h165.012v165.012h-165.012v-165.012zM693.012 101.977h165.012v165.012h-165.012v-165.012z" />
<glyph unicode="&#xe612;" glyph-name="gmail" d="M960 0h-896q-26 0-45 19t-19 45v640q0 27 18.5 45.5t45.5 18.5h896q27 0 45.5-18.5t18.5-45.5v-640q0-26-18.5-45t-45.5-19zM960 672q0 13-9.5 22.5t-22.5 9.5h-64q-20 0-31.5-1.5t-30-11-37.5-28.5l-253-253-253 253q-19 19-37.5 28.5t-29.5 11-32 1.5h-64q-13 0-22.5-9.5t-9.5-22.5v-576q0-13 9.5-22.5t22.5-9.5h64q13 0 22.5 9.5t9.5 22.5v33l211 210 74-74q15-15 35-7 20-8 35 7l74 74 211-210v-33q0-13 9.5-22.5t22.5-9.5h64q13 0 22.5 9.5t9.5 22.5v576zM832 219l-166 166 166 165v-331zM192 550l166-165-166-166v331z" />
<glyph unicode="&#xe613;" glyph-name="skype" d="M952.64 369.056c4.544 25.664 7.36 51.936 7.36 78.944 0 247.424-200.576 448-448 448-27.008 0-53.28-2.816-78.944-7.36-45.984 44.096-108.32 71.36-177.056 71.36-141.376 0-256-114.624-256-256 0-68.736 27.264-131.072 71.36-177.056-4.544-25.664-7.36-51.936-7.36-78.944 0-247.424 200.576-448 448-448 27.008 0 53.28 2.784 78.944 7.36 45.984-44.096 108.32-71.36 177.056-71.36 141.376 0 256 114.624 256 256 0 68.736-27.264 131.072-71.36 177.056zM709.28 268.672c-17.728-24.128-43.84-43.264-77.728-56.768-33.568-13.408-73.76-20.224-119.456-20.224-54.944 0-100.992 9.312-136.928 27.616-25.696 13.376-46.88 31.392-62.976 53.856-16.256 22.528-24.48 44.896-24.48 66.528 0 13.472 5.344 25.12 15.936 34.72 10.464 9.536 23.904 14.272 39.904 14.272 13.152 0 24.512-3.744 33.696-11.264 8.8-7.264 16.352-17.888 22.432-31.552 6.784-14.976 14.144-27.552 21.952-37.44 7.52-9.632 18.304-17.664 32.096-23.936 13.856-6.304 32.576-9.536 55.552-9.536 31.584 0 57.536 6.496 77.024 19.328 19.040 12.512 28.288 27.552 28.288 45.984 0 14.528-4.832 25.984-14.752 34.912-10.432 9.376-24.16 16.672-40.768 21.696-17.408 5.184-41.024 10.912-70.208 16.736-39.68 8.192-73.376 17.888-100.224 28.832-27.424 11.264-49.536 26.848-65.696 46.272-16.416 19.84-24.736 44.608-24.736 73.824 0 27.808 8.736 52.896 25.984 74.496 17.088 21.504 42.080 38.208 74.24 49.632 31.712 11.328 69.472 17.024 112.192 17.024 34.112 0 64.192-3.808 89.248-11.328 25.216-7.52 46.432-17.76 63.2-30.304 16.768-12.672 29.312-26.144 37.152-40.256 7.904-14.144 11.968-28.32 11.968-41.984 0-13.184-5.28-25.12-15.68-35.552-10.496-10.464-23.68-15.776-39.296-15.776-14.144 0-25.248 3.328-32.928 9.856-7.168 6.112-14.592 15.616-22.816 29.28-9.568 17.44-21.088 31.2-34.336 40.896-12.8 9.44-34.304 14.144-63.84 14.144-27.392 0-49.728-5.28-66.24-15.744-15.968-10.048-23.712-21.6-23.712-35.296 0-8.416 2.496-15.392 7.648-21.408 5.408-6.464 13.088-12 22.784-16.704 10.016-4.832 20.416-8.704 30.784-11.456 10.624-2.848 28.448-7.040 52.896-12.48 30.944-6.432 59.392-13.6 84.544-21.344 25.504-7.872 47.424-17.504 65.44-28.768 18.304-11.456 32.8-26.176 43.136-43.808 10.304-17.696 15.52-39.488 15.52-64.832-0.064-30.24-9.024-58.016-26.816-82.144z" />
<glyph unicode="&#xe614;" glyph-name="pocket" d="M512 0q-88 0-162 16t-140 54-111.5 96-72 146-26.5 200v256q0 53 37.5 90.5t90.5 37.5h768q53 0 90.5-37.5t37.5-90.5v-256q0-112-26.5-200t-72-146-111.5-96-140-54-162-16zM807.5 617.5q-24.5 23.5-59.5 23.5t-59-23l-177-169-178 169q-24 23-58.5 23t-59-23.5-24.5-56.5 24-56l237-225q24-24 58.5-24t59.5 24l236 225q25 23 25 56t-24.5 56.5z" />
<glyph unicode="&#xe615;" glyph-name="up-bold" d="M512.002 960l-512.002-512h320v-511.998l384-0.002v512h320z" />
<glyph unicode="&#xe616;" glyph-name="right-bold" d="M1024 448l-512 512v-320h-511.998l-0.002-384h512v-320z" />
<glyph unicode="&#xe617;" glyph-name="down-bold" d="M512-64l512 512h-320v511.998l-384 0.002v-512h-320z" />
<glyph unicode="&#xe618;" glyph-name="left-bold" d="M0 448l512-512v320h511.998l0.002 384h-512v320z" />
<glyph unicode="&#xe619;" glyph-name="ok" d="M384 248.667l452 452 60-60-512-512-238 238 60 60z" />
<glyph unicode="&#xe61a;" glyph-name="home" d="M1024 369.556l-512 397.426-512-397.428v162.038l512 397.426 512-397.428zM896 384v-384h-256v256h-256v-256h-256v384l384 288z" />
<glyph unicode="&#xe61b;" glyph-name="chrome" d="M258.278 513.458l-146.532 253.802c93.818 117.464 238.234 192.74 400.254 192.74 187.432 0 351.31-100.736 440.532-251h-417.77c-7.504 0.65-15.092 1-22.762 1-121.874 0-224.578-83.644-253.722-196.542zM695.306 635h293.46c22.74-57.93 35.234-121.004 35.234-187 0-280.826-226.1-508.804-506.186-511.926l209.394 362.678c29.48 42.378 46.792 93.826 46.792 149.248 0 73.17-30.164 139.42-78.694 187zM326 448c0 102.56 83.44 186 186 186s186-83.44 186-186c0-102.56-83.44-186-186-186s-186 83.44-186 186zM582.182 195.558l-146.578-253.878c-246.532 36.884-435.604 249.516-435.604 506.32 0 91.218 23.884 176.846 65.696 251.024l209.030-362.054c41.868-89.112 132.476-150.97 237.274-150.97 24.3 0 47.836 3.34 70.182 9.558z" />
<glyph unicode="&#xe61c;" glyph-name="safari" d="M512 896c-24.064 0-47.708-1.792-70.824-5.212-0.3 0.782-0.624 1.548-0.982 2.296 12.826 10.002 19.55 23.83 16.634 37.552-3.734 17.564-22.394 29.364-46.434 29.364-5.18 0-10.458-0.562-15.68-1.672-30.168-6.414-50.146-28.622-45.482-50.562 2.834-13.338 14.292-23.338 30.164-27.384-0.032-0.972-0.016-1.95 0.042-2.934-200.622-57.53-347.438-242.338-347.438-461.448 0-265.098 214.904-480 480-480 265.098 0 480 214.902 480 480 0 265.096-214.902 480-480 480zM364.882 911.092c-2.706 12.726 12.48 27.19 33.158 31.584 4.132 0.878 8.29 1.324 12.354 1.324 16.036 0 28.694-6.864 30.784-16.69 1.596-7.51-3.070-15.61-11.386-21.904-7.034 4.966-16.016 7.126-25.1 5.196-9.044-1.922-16.348-7.508-20.758-14.856-10.184 2.45-17.508 8.084-19.052 15.346zM769.386 158.614c-43.968-43.968-97.21-75.278-155.31-92.154l-42.396 68.768-10.746-79.958c-16.090-2.152-32.426-3.27-48.934-3.27-97.228 0-188.636 37.864-257.386 106.614-43.968 43.966-75.278 97.21-92.154 155.308l68.768 42.398-79.96 10.746c-2.15 16.090-3.268 32.426-3.268 48.934 0 97.228 37.862 188.636 106.614 257.386 43.968 43.968 97.212 75.278 155.31 92.156l42.396-68.77 10.748 79.96c16.088 2.15 32.424 3.268 48.932 3.268 97.228 0 188.636-37.862 257.386-106.614 43.968-43.968 75.278-97.212 92.154-155.31l-68.77-42.398 79.96-10.746c2.152-16.088 3.27-32.424 3.27-48.932 0-97.228-37.864-188.636-106.614-257.386zM760.902 664.902l-196.978-149.704c-14.644 7.658-30.876 12.062-47.416 12.726l-51.080 107.18-3.068-118.664c-13.284-6.536-25.104-15.664-34.876-26.95l-63.088 22.364 46.092-48.538c-6.334-13.518-9.866-28.030-10.434-42.824l-107.158-51.066 118.738-3.068c0.38-0.768 0.774-1.526 1.17-2.282l-149.704-196.98 196.978 149.704c14.644-7.656 30.874-12.060 47.416-12.724l51.080-107.182 3.066 118.664c13.286 6.538 25.106 15.664 34.878 26.952l63.090-22.368-46.094 48.54c6.336 13.52 9.868 28.030 10.436 42.824l107.156 51.066-118.736 3.070c-0.378 0.766-0.774 1.524-1.17 2.28l149.702 196.98zM512.102 515.466v0zM492.042 509.902c6.726 1.43 13.444 2.118 20.056 2.118 4.144 0 8.25-0.27 12.294-0.796l0.092-0.032-0.010 0.022c8.732-1.144 17.176-3.5 25.132-6.896l-71.546-54.376-54.38-71.552c-2.376 5.594-4.27 11.484-5.58 17.652-11.026 51.86 22.080 102.836 73.942 113.86zM562.12 334.116v0 0c-9.056-5.544-19.182-9.684-30.16-12.018-6.726-1.43-13.444-2.118-20.054-2.118-4.15 0-8.258 0.272-12.308 0.798l-0.068 0.010c-8.734 1.142-17.174 3.5-25.132 6.894l71.544 54.376 54.38 71.554c2.376-5.594 4.27-11.486 5.58-17.654 8.69-40.882-10.056-81.2-43.782-101.842z" />
<glyph unicode="&#xe61d;" glyph-name="space-invaders" horiz-adv-x="1056" d="M958.816 160.576v190.304h-93.12v-191.008h-97.184v-94.496h-225.536v95.2h225.536v95.104h-479.712v-95.136l192.96-0.672v-95.136h-193.632v94.432h-97.152v192.32h-93.152v-190.304h-97.824v288.128h95.84v92.512h95.136v97.824h97.824v95.808h95.808v-96.096l287.456-0.768v96.864h95.808v-97.152h97.824v-95.168h94.496v-95.136h96.448v-287.424h-97.824zM384.608 543.84h-95.808v-95.84h95.808v95.84zM767.872 543.84h-95.808v-95.84h95.808v95.84zM190.976 831.264h97.824v-95.808h-97.824v95.808zM865.696 831.264v-95.808h-97.824v95.808h97.824z" />
<glyph unicode="&#xe61e;" glyph-name="menu" d="M128 682.667h768v-86h-768v86zM128 384.667v84h768v-84h-768zM128 170.667v86h768v-86h-768z" />
<glyph unicode="&#xe61f;" glyph-name="retweet" d="M256.416 254.944v255.104h125.824l-188.864 220.544-192.832-220.576h126.304v-380.672h558.976l-125.536 125.568h-303.872zM897.152 351.968v382.656h-560.992l127.552-127.52h303.872v-255.136h-125.824l188.832-220.576 192.832 220.576h-126.272z" />
<glyph unicode="&#xe620;" glyph-name="opera" d="M510.046 960c-279.724 0-480.748-202.896-480.748-507.224 0-270.818 195.502-516.776 480.784-516.776 288.078 0 484.62 245.886 484.62 516.776 0 306.76-207.446 507.224-484.656 507.224zM688.358 461.458c-0.068-169.352-9.098-410.482-178.276-410.482v-0.034c-166.784 0-173.432 241.266-173.432 410.308 0 198.38 18.56 388.568 173.432 388.568 154.874 0 178.276-192.584 178.276-388.36z" />
<glyph unicode="&#xe621;" glyph-name="ie" d="M734.202 331.17h236.050c1.82 16.37 2.548 33.098 2.548 50.196 0 80.224-21.534 155.468-59.124 220.266 38.88 103.308 37.492 190.988-14.556 243.39-49.496 49.28-182.29 41.28-332.412-25.198-11.104 0.84-22.318 1.272-33.638 1.272-206.048 0-378.926-141.794-426.708-332.85 64.638 82.754 132.638 142.754 223.478 186.448-8.26-7.74-56.454-55.652-64.56-63.764-239.548-239.478-315.090-552.306-233.806-633.604 61.786-61.774 173.758-51.342 302.376 11.648 59.806-30.458 127.5-47.63 199.218-47.63 193.134 0 356.804 124.316 416.090 297.448h-237.868c-32.734-60.382-96.748-101.48-170.218-101.48-73.468 0-137.484 41.098-170.216 101.48-14.55 27.274-22.914 58.554-22.914 91.656v0.722h386.26zM348.302 447.196c5.456 97.11 86.2 174.584 184.766 174.584s179.312-77.472 184.766-174.584h-369.532zM896.966 796.192c33.526-33.88 32.688-96.214 4.012-174.022-49.136 74.908-120.518 133.936-204.792 167.64 90.106 38.638 163.406 43.756 200.78 6.382zM93.482-7.256c-42.782 42.796-29.884 132.618 25.23 240.832 34.308-96.27 101.156-177.090 187.336-229.154-95.43-43.318-173.536-50.674-212.566-11.678z" />
<glyph unicode="&#xe622;" glyph-name="firefox" d="M1022.526 625.86l-11.86-76.080c0 0-16.954 140.856-37.732 193.514-31.846 80.688-46.014 80.040-46.108 79.922 21.33-54.204 17.462-83.324 17.462-83.324s-37.792 102.998-137.712 135.768c-110.686 36.282-170.57 26.364-177.488 24.486-1.050 0.008-2.064 0.010-3.030 0.010 0.818-0.062 1.612-0.146 2.426-0.212-0.034-0.020-0.090-0.042-0.082-0.052 0.45-0.548 122.306-21.302 143.916-50.996 0 0-51.76 0-103.272-14.842-2.328-0.666 189.524-23.964 228.746-215.674 0 0-21.030 43.876-47.040 51.328 17.106-52.036 12.714-150.776-3.576-199.85-2.096-6.312-4.24 27.282-36.328 41.75 10.28-73.646-0.616-190.456-51.708-222.632-3.982-2.504 32.030 115.31 7.242 69.762-142.708-218.802-311.404-100.972-387.248-49.11 38.866-8.462 112.654 1.318 145.314 25.612 0.042 0.030 0.078 0.056 0.118 0.086 35.468 24.252 56.472 41.964 75.334 37.772 18.874-4.214 31.438 14.726 16.78 31.53-14.676 16.838-50.314 39.978-98.524 27.366-34-8.904-76.134-46.522-140.448-8.432-49.364 29.25-54.012 53.546-54.45 70.376 1.218 5.966 2.754 11.536 4.576 16.624 5.682 15.87 22.912 20.658 32.494 24.438 16.256-2.792 30.262-7.862 44.968-15.406 0.19 4.894 0.252 11.39-0.018 18.76 1.41 2.802 0.538 11.252-1.722 21.58-1.302 10.308-3.42 20.974-6.752 30.692 0.012 0.002 0.020 0.010 0.030 0.014 0.056 0.018 0.108 0.040 0.156 0.070 0.078 0.044 0.146 0.112 0.208 0.19 0.012 0.020 0.030 0.034 0.044 0.052 0.082 0.124 0.154 0.272 0.198 0.466 1.020 4.618 12.022 13.524 25.718 23.1 12.272 8.58 26.702 17.696 38.068 24.752 10.060 6.248 17.72 10.882 19.346 12.098 0.618 0.466 1.358 1.012 2.164 1.636 0.15 0.116 0.3 0.232 0.454 0.354 0.094 0.074 0.19 0.148 0.286 0.226 5.41 4.308 13.484 12.448 15.178 29.578 0.004 0.042 0.010 0.080 0.012 0.122 0.050 0.504 0.092 1.014 0.13 1.534 0.028 0.362 0.050 0.726 0.072 1.096 0.014 0.284 0.032 0.566 0.044 0.856 0.030 0.674 0.050 1.364 0.060 2.064 0 0.040 0.002 0.076 0.004 0.116 0.022 1.658-0.006 3.386-0.104 5.202-0.054 1.014-0.126 1.93-0.298 2.762-0.008 0.044-0.018 0.092-0.028 0.136-0.018 0.082-0.036 0.164-0.058 0.244-0.036 0.146-0.076 0.292-0.122 0.43-0.006 0.018-0.010 0.032-0.016 0.046-0.052 0.16-0.112 0.314-0.174 0.464-0.004 0.006-0.004 0.010-0.006 0.016-1.754 4.108-8.32 5.658-35.442 6.118-0.026 0.002-0.050 0.002-0.076 0.002v0c-11.066 0.188-25.538 0.194-44.502 0.118-33.25-0.134-51.628 32.504-57.494 45.132 8.040 44.46 31.276 76.142 69.45 97.626 0.722 0.406 0.58 0.742-0.274 0.978 7.464 4.514-90.246 0.124-135.186-57.036-39.888 9.914-74.654 9.246-104.616 2.214-5.754 0.162-12.924 0.88-21.434 2.652-19.924 18.056-48.448 51.402-49.976 91.208 0 0-0.092-0.072-0.252-0.204-0.020 0.382-0.056 0.76-0.072 1.142 0 0-60.716-46.664-51.628-173.882-0.022-2.036-0.064-3.986-0.12-5.874-16.432-22.288-24.586-41.020-25.192-45.156-14.56-29.644-29.334-74.254-41.356-141.98 0 0 8.408 26.666 25.284 56.866-12.412-38.022-22.164-97.156-16.436-185.856 0 0 1.514 19.666 6.874 47.994 4.186-55.010 22.518-122.924 68.858-202.788 88.948-153.32 225.67-230.74 376.792-242.616 26.836-2.212 54.050-2.264 81.424-0.186 2.516 0.178 5.032 0.364 7.55 0.574 30.964 2.174 62.134 6.852 93.238 14.366 425.172 102.798 378.942 616.198 378.942 616.198z" />
<glyph unicode="&#xe623;" glyph-name="link" d="M440.236 324.234c-13.31 0-26.616 5.076-36.77 15.23-95.134 95.136-95.134 249.934 0 345.070l192 192c46.088 46.086 107.36 71.466 172.534 71.466s126.448-25.38 172.536-71.464c95.132-95.136 95.132-249.934 0-345.070l-87.766-87.766c-20.308-20.308-53.23-20.308-73.54 0-20.306 20.306-20.306 53.232 0 73.54l87.766 87.766c54.584 54.586 54.584 143.404 0 197.99-26.442 26.442-61.6 41.004-98.996 41.004s-72.552-14.562-98.996-41.006l-192-191.998c-54.586-54.586-54.586-143.406 0-197.992 20.308-20.306 20.306-53.232 0-73.54-10.15-10.152-23.462-15.23-36.768-15.23zM256-52c-65.176 0-126.45 25.38-172.534 71.464-95.134 95.136-95.134 249.934 0 345.070l87.764 87.764c20.308 20.306 53.234 20.306 73.54 0 20.308-20.306 20.308-53.232 0-73.54l-87.764-87.764c-54.586-54.586-54.586-143.406 0-197.992 26.44-26.44 61.598-41.002 98.994-41.002s72.552 14.562 98.998 41.006l192 191.998c54.584 54.586 54.584 143.406 0 197.992-20.308 20.308-20.306 53.232 0 73.54 20.306 20.306 53.232 20.306 73.54-0.002 95.132-95.134 95.132-249.932 0.002-345.068l-192.002-192c-46.090-46.088-107.364-71.466-172.538-71.466z" />
<glyph unicode="&#xe624;" glyph-name="new-tab" d="M192 896v-768h768v768h-768zM896 192h-640v640h640v-640zM128 64v672l-64 64v-800h800l-64 64h-672zM352 704l160-160-192-192 96-96 192 192 160-160v416z" />
<glyph unicode="&#xe625;" glyph-name="stamp" d="M896-51.2h-819.2c-14.138 0-25.6 11.461-25.6 25.6s11.462 25.6 25.6 25.6h819.2c14.139 0 25.6-11.461 25.6-25.6s-11.461-25.6-25.6-25.6zM896 256h-230.4c-27.754 0-51.2 35.17-51.2 76.8v257.893c61.166 35.464 102.4 101.659 102.4 177.307 0 112.928-91.874 204.8-204.8 204.8-112.928 0-204.8-91.872-204.8-204.8 0-75.65 41.232-141.845 102.4-177.307v-257.893c0-41.63-23.446-76.8-51.2-76.8h-281.6c-42.347 0-76.8-34.451-76.8-76.8v-51.2c0-42.349 34.453-76.8 76.8-76.8h819.2c42.349 0 76.8 34.451 76.8 76.8v51.2c0 42.349-34.451 76.8-76.8 76.8zM358.4 768c0 84.696 68.904 153.6 153.6 153.6s153.6-68.904 153.6-153.6-68.904-153.6-153.6-153.6-153.6 68.904-153.6 153.6zM460.8 332.8v236.88c16.37-4.229 33.528-6.48 51.2-6.48 17.674 0 34.83 2.251 51.2 6.48v-236.88c0-28.794 7.65-55.392 20.536-76.8h-143.472c12.886 21.408 20.536 48.006 20.536 76.8zM921.6 128c0-14.115-11.485-25.6-25.6-25.6h-819.2c-14.115 0-25.6 11.485-25.6 25.6v51.2c0 14.115 11.485 25.6 25.6 25.6h819.2c14.115 0 25.6-11.485 25.6-25.6v-51.2zM435.2 767.994c-2.832 0-5.709 0.474-8.531 1.47-13.331 4.712-20.317 19.338-15.605 32.667 10.27 29.059 37.741 56.53 66.803 66.805 13.334 4.714 27.957-2.274 32.669-15.602 4.712-13.331-2.272-27.957-15.602-32.669-14.502-5.128-30.472-21.096-35.597-35.595-3.715-10.51-13.592-17.077-24.138-17.077z" />
<glyph unicode="&#xe627;" glyph-name="facebook-rect" d="M832.010 928h-639.994c-88.005 0-160.016-72.013-160.016-160.020v-639.962c0-88.067 72.011-160.018 160.016-160.018l639.994 0.002c88.009 0 159.99 71.949 159.99 160.020v639.958c0 88.007-71.983 160.020-159.99 160.020zM848.18 448h-156.18v-420h-180v420h-86.743v137.404h86.743v89.237c0 121.258 52.305 193.359 194.878 193.359h164.291v-148.659h-134.184c-39.827 0.066-44.767-20.767-44.767-59.542l-0.217-74.394h180l-23.82-137.404z" />
<glyph unicode="&#xe628;" glyph-name="facebook" d="M575.87-64h-191.87v512h-128v176.45l128 0.058-0.208 103.952c0 143.952 39.034 231.54 208.598 231.54h141.176v-176.484h-88.23c-66.032 0-69.206-24.656-69.206-70.684l-0.262-88.324h158.69l-18.704-176.45-139.854-0.058-0.13-512z" />
<glyph unicode="&#xe629;" glyph-name="twitter" d="M598.016 518.656l335.36 390.144h-79.36l-291.328-338.944-232.96 338.944h-268.8l352.256-512.512-352.256-409.088h79.36l307.712 357.888 245.76-357.888h268.288l-365.056 531.456zM488.96 392.192l-319.488 456.704h122.368l562.688-804.864h-122.368l-243.2 347.648z" />
<glyph unicode="&#xe62a;" d="M32 960v-1024" />
<glyph unicode="&#xe62b;" glyph-name="flickr" d="M800 544c-70.58 0-128-57.42-128-128s57.42-128 128-128c70.58 0 128 57.42 128 128s-57.42 128-128 128zM800 640v0c123.71 0 224-100.288 224-224 0-123.71-100.29-224-224-224s-224 100.29-224 224c0 123.712 100.29 224 224 224zM0 416c0 123.712 100.288 224 224 224s224-100.288 224-224c0-123.712-100.288-224-224-224s-224 100.288-224 224z" />
<glyph unicode="&#xe62c;" glyph-name="pinterest-rect" d="M832.016 928h-640.033c-88.359 0-159.983-71.644-159.983-160.018v-639.966c0-88.374 71.623-160.016 159.983-160.016h640.033c88.359 0 159.984 71.642 159.984 160.016v639.966c0 88.374-71.625 160.018-159.984 160.018zM558.541 286.639c-43.612 3.388-61.914 24.99-96.098 45.757-18.806-98.604-41.777-193.142-109.817-242.52-21.004 149.033 30.838 260.966 54.909 379.794-41.049 69.099 4.941 208.157 91.519 173.882 106.524-42.139-92.25-256.883 41.186-283.702 139.331-28.001 196.207 241.742 109.821 329.46-124.836 126.662-363.373 2.888-334.041-178.459 7.138-44.336 52.942-57.786 18.304-118.971-79.894 17.711-103.734 80.721-100.665 164.73 4.939 137.507 123.547 233.779 242.518 247.093 150.454 16.841 291.662-55.226 311.162-196.759 21.947-159.739-67.922-332.745-228.799-320.306z" />
<glyph unicode="&#xe62d;" glyph-name="rss" d="M159.776 224.003c-70.496 0-127.774-57.501-127.774-127.571 0-70.457 57.281-127.314 127.774-127.314 70.749 0 127.963 56.857 127.963 127.314-0.002 70.071-57.21 127.571-127.963 127.571zM32.146 601.816v-183.992c119.798 0 232.461-46.849 317.304-131.73 84.735-84.673 131.514-197.846 131.514-318.094h184.802c-0.002 349.519-284.327 633.816-633.621 633.816zM32.364 928v-184.084c427.296 0 775.084-348.126 775.084-775.916h184.553c0 529.191-430.551 960-959.636 960z" />
<glyph unicode="&#xe62e;" glyph-name="vimeo" d="M0 651.63l41.594-54.544c0 0 85.77 67.608 114.36 33.802 28.588-33.802 137.736-441.956 174.17-517.246 31.8-66.030 119.518-153.32 215.714-90.982 96.136 62.34 415.84 335.286 473.066 657.616 57.18 322.226-384.72 254.726-431.53-26.010 116.99 70.236 179.436-28.538 119.57-140.372-59.758-111.724-114.36-184.592-142.952-184.592-28.538 0-50.49 74.768-83.188 205.446-33.798 135.102-33.592 378.46-174.116 350.87-132.518-26.012-306.688-233.988-306.688-233.988z" />
<glyph unicode="&#xe62f;" glyph-name="cupcake" d="M512 320q-139 0-257 34.5t-186.5 93.5-68.5 128q0 80 89 144.5t233 93.5q7-74 61.5-124t128.5-50 128.5 50 61.5 124q144-29 233-93.5t89-144.5q0-69-68.5-128t-186.5-93.5-257-34.5zM512 704q-53 0-90.5 37.5t-37.5 90.5 37.5 90.5 90.5 37.5 90.5-37.5 37.5-90.5-37.5-90.5-90.5-37.5zM220-19q-92 36-92 83l-64 320q53-53 130-84zM259 279q56-14 125-20v-316q-52 7-98 18zM576 257v-319q-34-2-64-2t-64 2v319q25-1 64-1 40 0 64 1zM738-39q-46-11-98-18v316q69 6 125 20zM960 384l-64-320q0-47-92-83l26 319q77 31 130 84z" />
<glyph unicode="&#xe630;" glyph-name="raceflag" d="M1024 256q-8 8-23 17-1 1-7 4-11 6-22 11-6 3-8 3-31 13-68 21v133q73-10 128-61v-128zM820 448q-23 0-52-3v128q29 3 52 3 50 0 76-3v-128q-25 3-76 3zM768 701v128q29 3 52 3 51 0 76-3v-128q-25 3-76 3-23 0-52-3zM512 622v128q95 39 128 50v-128q-31-10-128-50zM335 576q-38 0-79 8v128q41-8 79-8 22 0 49 5v-128q-27-5-49-5zM128 640q43-39 128-56v-128q-86 17-128 56v-128q43-39 128-56v-133q-14 2-29 6-2 0-5 1t-3 2q-11 3-21 7-6 2-10 4-10 5-21 12-8 5-9 5-17 12-30 24v-256q0-26-19-45t-45.5-19-45 19-18.5 45v896q0 27 18.5 45.5t45 18.5 45.5-18.5 19-45.5q9-9 24-18 1 0 2.5-1l3-2t2.5-1q10-6 21-11 5-2 8-4 15-5 28-9l3-1q17-5 36-9v-128q-85 17-128 56v-128zM335 448q22 0 49 5v-128q-27-5-49-5-38 0-79 8v128q41-8 79-8zM640 544v-128q-32-11-128-50v128q95 39 128 50zM640 672q67 22 128 29v-128q-61-7-128-29v128zM384 453v128q48 8 128 41v-128q-80-33-128-41zM768 317q-62-6-128-28v127q67 22 128 29v-128zM512 239q-15-6-28-11-3-1-7-3-11-4-25-9l-6-2q-17-6-30-9-17-5-32-8v128q48 8 128 41v-127zM384 837q40 7 95 28l1 0.5t2 0.5q16 6 30 12v-128q-80-33-128-41v128zM640 928q67 22 128 29v-128q-61-7-128-29v128zM925 951q2 0 4.5-1t3.5-1q11-3 22-8 4-2 9-4 10-5 21-12 8-5 9-5 17-12 30-24v-128q-55 51-128 61v128q14-2 29-6zM1024 640v-128q-55 51-128 61v128q73-10 128-61zM820 960v0z" />
<glyph unicode="&#xe631;" glyph-name="speaker" d="M832-64h-640q-26 0-45 19t-19 45v896q0 26 18.5 45t45.5 19h640q27 0 45.5-18.5t18.5-45.5v-896q0-27-19-45.5t-45-18.5zM512 896q-53 0-90.5-37.5t-37.5-90.5 37.5-90.5 90.5-37.5 90.5 37.5 37.5 90.5-37.5 90.5-90.5 37.5zM512 512q-106 0-181-75t-75-181 75-181 181-75 181 75 75 181-75 181-181 75zM512 128q-53 0-90.5 37.5t-37.5 90.5 37.5 90.5 90.5 37.5 90.5-37.5 37.5-90.5-37.5-90.5-90.5-37.5zM512 704q-26 0-45 18.5t-19 45 19 45.5 45.5 19 45-19 18.5-45.5-19-45-45-18.5z" />
<glyph unicode="&#xe632;" glyph-name="th-large" d="M576-64v448h448v-448h-448zM576 960h448v-448h-448v448zM0 384h448v-448h-448v448zM0 960h448v-448h-448v448z" />
<glyph unicode="&#xe633;" glyph-name="lock" d="M896-64h-768q-26 0-45 18.5t-19 45.5v448q0 27 19 45.5t45 18.5h64v128q0 87 43 160.5t116.5 116.5 160.5 43 160.5-43 116.5-116.5 43-160.5v-128h64q27 0 45.5-18.5t18.5-45.5v-448q0-27-18.5-45.5t-45.5-18.5zM384 0h256l-81 201q36 15 58.5 47t22.5 72q0 53-37.5 90.5t-90.5 37.5-90.5-37.5-37.5-90.5q0-40 22.5-72t58.5-47zM704 640q0 80-56 136t-135.5 56-136-56-56.5-136v-128h384v128z" />
<glyph unicode="&#xe634;" glyph-name="unlock" d="M896-64h-768q-26 0-45 19t-19 45v448q0 27 19 45.5t45 18.5v0h576v128q0 80-56 136t-135.5 56-136-56-56.5-136h-128q0 87 43 160.5t116.5 116.5 160.5 43 160.5-43 116.5-116.5 43-160.5v-128h64q27 0 45.5-18.5t18.5-45.5v-448q0-26-18.5-45t-45.5-19zM640 320q0 53-37.5 90.5t-90.5 37.5-90.5-37.5-37.5-90.5q0-40 22.5-72t58.5-47l-81-201h256l-81 201q36 15 58.5 47t22.5 72z" />
<glyph unicode="&#xe635;" glyph-name="alarm" d="M871.328 487.2c-43.968 121.824-151.2 215.328-284.512 245.088 34.144 49.024 90.752 81.248 155.040 81.248 104.448 0 189.088-84.672 189.088-189.12 0-54.208-23.104-102.752-59.616-137.216zM507.648 806.432v-118.912c181.44-7.392 326.368-156.416 326.368-339.648 0-76.544-25.568-146.944-68.16-203.744l78.848-136.608-65.504-37.856-67.488 116.928c-59.072-49.376-135.072-79.168-218.048-79.168-82.528 0-158.176 29.408-217.088 78.24l-69.28-119.904-65.504 37.856 80.512 139.392c-43.136 57.024-68.992 127.84-68.992 204.864 0 182.016 142.976 330.208 322.688 339.456v119.104c-18.336 6.56-31.648 23.68-31.648 44.32 0 26.24 21.28 47.488 47.488 47.488 26.24 0 47.52-21.28 47.52-47.488-0.032-20.64-13.344-37.76-31.712-44.32zM228.896 347.872c0-146.24 118.528-264.736 264.736-264.736 146.176 0 264.736 118.496 264.736 264.736 0 146.176-118.56 264.704-264.736 264.704-146.208 0.032-264.736-118.528-264.736-264.704zM572.992 290.624h-95.008c-17.504 0-31.68 14.176-31.68 31.68v126.688c0 17.504 14.176 31.68 31.68 31.68 17.472 0 31.648-14.176 31.648-31.68v-95.008h63.328c17.504 0 31.68-14.176 31.68-31.68s-14.144-31.68-31.648-31.68zM120.704 487.2c-36.544 34.496-59.648 83.008-59.648 137.216 0 104.448 84.672 189.12 189.12 189.12 64.256 0 120.832-32.224 155.040-81.248-133.312-29.76-240.544-123.264-284.512-245.088z" />
<glyph unicode="&#xe636;" glyph-name="clock" d="M512 848c-229.792 0-416-186.24-416-416s186.208-416 416-416c229.728 0 416 186.24 416 416s-186.24 416-416 416zM508.64 95.136c-185.568 0-336 150.432-336 336s150.432 336 336 336c185.536 0 336-150.432 336-336s-150.464-336-336-336zM605.76 411.808h-95.36v161.024c0 17.472-14.176 31.68-31.648 31.68-17.504 0-31.68-14.176-31.68-31.68v-192.672c0-17.504 14.176-31.648 31.68-31.648h127.008c17.504 0 31.68 14.144 31.68 31.648 0 17.472-14.176 31.648-31.68 31.648z" />
<glyph unicode="&#xe637;" glyph-name="coffee" d="M346 128h332q47 33 89 76 34-12 65-12 80 0 136 56.5t56 135.5q0 63-37 112.5t-95 69.5q-1 6-1 10h-758q-5-35-5-128 0-45 21-94t55-91 69.5-75.5 72.5-59.5zM896 448q0 15-1 47 30-17 47.5-46.5t17.5-64.5q0-53-37.5-90.5t-90.5-37.5q-4 0-16 2 80 101 80 190zM448 768q0-23-9-55-39-28-51-73h64q2 14 5 24 55 38 55 104 0 53-37.5 90.5t-90.5 37.5q-15 0-32-4 42-11 69-45t27-79zM640 832q0-23-9-55-55-39-55-105 0-14 5-32h63q-4 18-4 32 0 24 9 56 55 38 55 104 0 53-37.5 90.5t-90.5 37.5q-15 0-32-4 42-11 69-45t27-79zM256-64h512q55 0 116 21.5t100.5 52 39.5 54.5h-1024q0-24 39.5-54.5t100.5-52 116-21.5z" />
<glyph unicode="&#xe638;" glyph-name="building" horiz-adv-x="805" d="M219.429 201.143v-36.571q0-7.429-5.429-12.857t-12.857-5.429h-36.571q-7.429 0-12.857 5.429t-5.429 12.857v36.571q0 7.429 5.429 12.857t12.857 5.429h36.571q7.429 0 12.857-5.429t5.429-12.857zM219.429 347.428v-36.571q0-7.429-5.429-12.857t-12.857-5.429h-36.571q-7.429 0-12.857 5.429t-5.429 12.857v36.571q0 7.429 5.429 12.857t12.857 5.429h36.571q7.429 0 12.857-5.429t5.429-12.857zM365.714 347.428v-36.571q0-7.429-5.429-12.857t-12.857-5.429h-36.571q-7.429 0-12.857 5.429t-5.429 12.857v36.571q0 7.429 5.429 12.857t12.857 5.429h36.571q7.429 0 12.857-5.429t5.429-12.857zM219.429 493.714v-36.571q0-7.429-5.429-12.857t-12.857-5.429h-36.571q-7.429 0-12.857 5.429t-5.429 12.857v36.571q0 7.429 5.429 12.857t12.857 5.429h36.571q7.429 0 12.857-5.429t5.429-12.857zM658.286 201.143v-36.571q0-7.429-5.429-12.857t-12.857-5.429h-36.571q-7.429 0-12.857 5.429t-5.429 12.857v36.571q0 7.429 5.429 12.857t12.857 5.429h36.571q7.429 0 12.857-5.429t5.429-12.857zM512 347.428v-36.571q0-7.429-5.429-12.857t-12.857-5.429h-36.571q-7.429 0-12.857 5.429t-5.429 12.857v36.571q0 7.429 5.429 12.857t12.857 5.429h36.571q7.429 0 12.857-5.429t5.429-12.857zM365.714 493.714v-36.571q0-7.429-5.429-12.857t-12.857-5.429h-36.571q-7.429 0-12.857 5.429t-5.429 12.857v36.571q0 7.429 5.429 12.857t12.857 5.429h36.571q7.429 0 12.857-5.429t5.429-12.857zM219.429 640v-36.571q0-7.429-5.429-12.857t-12.857-5.429h-36.571q-7.429 0-12.857 5.429t-5.429 12.857v36.571q0 7.429 5.429 12.857t12.857 5.429h36.571q7.429 0 12.857-5.429t5.429-12.857zM658.286 347.428v-36.571q0-7.429-5.429-12.857t-12.857-5.429h-36.571q-7.429 0-12.857 5.429t-5.429 12.857v36.571q0 7.429 5.429 12.857t12.857 5.429h36.571q7.429 0 12.857-5.429t5.429-12.857zM512 493.714v-36.571q0-7.429-5.429-12.857t-12.857-5.429h-36.571q-7.429 0-12.857 5.429t-5.429 12.857v36.571q0 7.429 5.429 12.857t12.857 5.429h36.571q7.429 0 12.857-5.429t5.429-12.857zM365.714 640v-36.571q0-7.429-5.429-12.857t-12.857-5.429h-36.571q-7.429 0-12.857 5.429t-5.429 12.857v36.571q0 7.429 5.429 12.857t12.857 5.429h36.571q7.429 0 12.857-5.429t5.429-12.857zM219.429 786.286v-36.571q0-7.429-5.429-12.857t-12.857-5.429h-36.571q-7.429 0-12.857 5.429t-5.429 12.857v36.571q0 7.429 5.429 12.857t12.857 5.429h36.571q7.429 0 12.857-5.429t5.429-12.857zM658.286 493.714v-36.571q0-7.429-5.429-12.857t-12.857-5.429h-36.571q-7.429 0-12.857 5.429t-5.429 12.857v36.571q0 7.429 5.429 12.857t12.857 5.429h36.571q7.429 0 12.857-5.429t5.429-12.857zM512 640v-36.571q0-7.429-5.429-12.857t-12.857-5.429h-36.571q-7.429 0-12.857 5.429t-5.429 12.857v36.571q0 7.429 5.429 12.857t12.857 5.429h36.571q7.429 0 12.857-5.429t5.429-12.857zM365.714 786.286v-36.571q0-7.429-5.429-12.857t-12.857-5.429h-36.571q-7.429 0-12.857 5.429t-5.429 12.857v36.571q0 7.429 5.429 12.857t12.857 5.429h36.571q7.429 0 12.857-5.429t5.429-12.857zM658.286 640v-36.571q0-7.429-5.429-12.857t-12.857-5.429h-36.571q-7.429 0-12.857 5.429t-5.429 12.857v36.571q0 7.429 5.429 12.857t12.857 5.429h36.571q7.429 0 12.857-5.429t5.429-12.857zM512 786.286v-36.571q0-7.429-5.429-12.857t-12.857-5.429h-36.571q-7.429 0-12.857 5.429t-5.429 12.857v36.571q0 7.429 5.429 12.857t12.857 5.429h36.571q7.429 0 12.857-5.429t5.429-12.857zM658.286 786.286v-36.571q0-7.429-5.429-12.857t-12.857-5.429h-36.571q-7.429 0-12.857 5.429t-5.429 12.857v36.571q0 7.429 5.429 12.857t12.857 5.429h36.571q7.429 0 12.857-5.429t5.429-12.857zM512 0h219.429v877.714h-658.286v-877.714h219.429v128q0 7.429 5.429 12.857t12.857 5.429h182.857q7.429 0 12.857-5.429t5.429-12.857v-128zM804.571 914.286v-950.857q0-14.857-10.857-25.714t-25.714-10.857h-731.429q-14.857 0-25.714 10.857t-10.857 25.714v950.857q0 14.857 10.857 25.714t25.714 10.857h731.429q14.857 0 25.714-10.857t10.857-25.714z" />
<glyph unicode="&#xe639;" glyph-name="metro" d="M768 468.667v214h-214v-214h214zM704 212.667q28 0 46 19t18 45-18 45-46 19-46-19-18-45 18-45 46-19zM470 468.667v214h-214v-214h214zM320 212.667q28 0 46 19t18 45-18 45-46 19-46-19-18-45 18-45 46-19zM512 852.667q166 0 254-34t88-136v-406q0-62-44-105t-106-43l64-64v-22h-512v22l64 64q-62 0-106 43t-44 105v406q0 102 88 136t254 34z" />
<glyph unicode="&#xe63a;" glyph-name="automobile" d="M214 468.667h596l-64 192h-468zM746 256.667q26 0 45 19t19 45-19 45-45 19-45-19-19-45 19-45 45-19zM278 256.667q26 0 45 19t19 45-19 45-45 19-45-19-19-45 19-45 45-19zM808 682.667l88-256v-342q0-18-12-30t-30-12h-44q-18 0-30 12t-12 30v44h-512v-44q0-18-12-30t-30-12h-44q-18 0-30 12t-12 30v342l88 256q12 42 62 42h468q50 0 62-42z" />
<glyph unicode="&#xe63b;" glyph-name="bus" d="M768 468.667v214h-512v-214h512zM704 212.667q28 0 46 19t18 45-18 45-46 19-46-19-18-45 18-45 46-19zM320 212.667q28 0 46 19t18 45-18 45-46 19-46-19-18-45 18-45 46-19zM170 256.667v426q0 102 88 136t254 34 254-34 88-136v-426q0-56-44-96v-76q0-18-12-30t-30-12h-42q-18 0-31 12t-13 30v44h-340v-44q0-18-13-30t-31-12h-42q-18 0-30 12t-12 30v76q-44 40-44 96z" />
<glyph unicode="&#xe63c;" glyph-name="shipping" d="M961 192h-82q18-31 18-64 0-53-37.5-90.5t-90.5-37.5-90.5 37.5-37.5 90.5q0 33 18 64h-292q18-31 18-64 0-53-37.5-90.5t-90.5-37.5-90.5 37.5-37.5 90.5q0 33 18 64h-82q-26 0-45 18.5t-19 45.5v254q-1 29 19 50l125 125q22 21 53 19h187v64q0 27 19 45.5t45 18.5h512q26 0 45-19t19-45v-512q0-26-18.5-45t-45.5-19zM385 608q0 13-9.5 22.5t-22.5 9.5h-157l-131-131v-93q0-13 9.5-22.5t22.5-9.5h256q13 0 22.5 9.5t9.5 22.5v192z" />
<glyph unicode="&#xe63d;" glyph-name="warmedal" d="M943 535l-94-94q-31 56-81 100v419h128q27 0 45.5-19t18.5-45v-320q0-24-17-41zM512-64q-87 0-160.5 43t-116.5 116.5-43 160.5 43 160.5 116.5 116.5 160.5 43 160.5-43 116.5-116.5 43-160.5-43-160.5-116.5-116.5-160.5-43zM593 354l-81 168-81-168-188-23 138-127-35-182 166 90 166-90-35 182 138 127zM640 960h64v-372q-31 17-64 29v343zM320 960h64v-343q-34-12-64-29v372zM175 441l-94 94q-17 17-17 41v320q0 26 19 45t45 19h128v-419q-50-44-81-100z" />
<glyph unicode="&#xe63e;" glyph-name="crown" d="M256 192h512v-128h-512zM960 768c-35.346 0-64-28.654-64-64 0-13.134 3.962-25.34 10.75-35.5l-234.75-156.5-24.062 192.508c31.598 3.91 56.062 30.834 56.062 63.492 0 35.346-28.654 64-64 64s-64-28.654-64-64c0-25.056 14.406-46.734 35.378-57.242l-99.378-198.758-99.378 198.758c20.972 10.508 35.378 32.186 35.378 57.242 0 35.346-28.654 64-64 64s-64-28.654-64-64c0-32.658 24.464-59.582 56.064-63.492l-24.064-192.508-234.748 156.5c6.786 10.158 10.748 22.366 10.748 35.5 0 35.346-28.654 64-64 64s-64-28.654-64-64 28.654-64 64-64c8.956 0 17.476 1.846 25.214 5.166l166.786-389.166h512l166.786 389.166c7.738-3.32 16.26-5.166 25.214-5.166 35.346 0 64 28.654 64 64s-28.654 64-64 64z" />
<glyph unicode="&#xe63f;" glyph-name="doc" d="M903.432 760.57l-142.864 142.862c-31.112 31.112-92.568 56.568-136.568 56.568h-480c-44 0-80-36-80-80v-864c0-44 36-80 80-80h736c44 0 80 36 80 80v608c0 44-25.456 105.458-56.568 136.57zM858.178 715.314c3.13-3.13 6.25-6.974 9.28-11.314h-163.458v163.456c4.34-3.030 8.184-6.15 11.314-9.28l142.864-142.862zM896 16c0-8.672-7.328-16-16-16h-736c-8.672 0-16 7.328-16 16v864c0 8.672 7.328 16 16 16h480c4.832 0 10.254-0.61 16-1.704v-254.296h254.296c1.094-5.746 1.704-11.166 1.704-16v-608z" />
<glyph unicode="&#xe640;" glyph-name="docs" d="M832 704h-192v64l-192 192h-448v-768h384v-256h640v576l-192 192zM832 613.49l101.49-101.49h-101.49v101.49zM448 869.49l101.49-101.49h-101.49v101.49zM64 896h320v-192h192v-448h-512v640zM960 0h-512v192h192v448h128v-192h192v-448z" />
<glyph unicode="&#xe641;" d="M64 960v-1024" />
<glyph unicode="&#xe642;" d="M96 960v-1024" />
<glyph unicode="&#xe643;" glyph-name="download" d="M832 896h-640l-192-192v-672c0-17.674 14.326-32 32-32h960c17.672 0 32 14.326 32 32v672l-192 192zM512 128l-320 256h192v192h256v-192h192l-320-256zM154.51 768l64 64h586.978l64-64h-714.978z" />
<glyph unicode="&#xe644;" glyph-name="upload" d="M832 896h-640l-192-192v-672c0-17.674 14.326-32 32-32h960c17.672 0 32 14.326 32 32v672l-192 192zM640 320v-192h-256v192h-192l320 256 320-256h-192zM154.51 768l64 64h586.976l64-64h-714.976z" />
<glyph unicode="&#xe645;" glyph-name="plus" d="M947.2 460.8h-435.2v435.2c0 14.138-11.462 25.6-25.6 25.6s-25.6-11.462-25.6-25.6v-435.2h-435.2c-14.138 0-25.6-11.461-25.6-25.6s11.462-25.6 25.6-25.6h435.2v-435.2c0-14.139 11.462-25.6 25.6-25.6s25.6 11.461 25.6 25.6v435.2h435.2c14.139 0 25.6 11.461 25.6 25.6s-11.461 25.6-25.6 25.6z" />
<glyph unicode="&#xe646;" glyph-name="minus" d="M947.2 409.6h-921.6c-14.138 0-25.6 11.461-25.6 25.6s11.462 25.6 25.6 25.6h921.6c14.139 0 25.6-11.461 25.6-25.6s-11.461-25.6-25.6-25.6z" />
<glyph unicode="&#xe647;" glyph-name="evernote" d="M962 320q0-177-24-259t-80-96q-3-1-22-6.5t-31-8-33.5-6.5-45.5-6-52-2q-104 0-128 32-10 14-21 45t-11 51q0 67 28.5 97.5t99.5 30.5q64 0 64-32 0-1-7-8.5t-23-15.5-34-8q-14 0-39-20.5t-25-43.5q0-21 26-42.5t70-21.5q19 0 31 1t26 4.5 21.5 10 12.5 18.5 5 30v128q0 14-2 24.5t-5 17.5-9.5 11.5-11.5 7-15 3.5-16 1-18-0.5-19-0.5q-102 0-128 32l-4.5 5.5t-7.5 9.5-7 11-7.5 17-5.5 21q0-30-31.5-69t-69.5-65-59-26h-96q-30 0-76.5 36.5t-81 83-34.5 72.5v256q0 27 17 45.5t47 18.5h128q20 0 42 23t22 41v128q0 29 25.5 46.5t77.5 17.5q58 0 108-19t77-45q71-1 110-3t84-9 62-20q27-21 41-33.5t29-31.5 20.5-42 5.5-53v-384zM770.5 576q-26.5 0-45.5-19t-19-45l103-51q25 19 25 51 0 26-18.5 45t-45 19zM226 768h-159l-1 1q-2 4 27 43t54 67q24 26 62 55t47 26l2-4v-156q0-13-9-22.5t-23-9.5z" />
<glyph unicode="&#xe648;" glyph-name="martini" d="M849.984 703.328l-335.872-294.816v-382.048l186.912-90.464h-438.048l186.944 90.432v382.080l-339.904 294.816h518.464l103.776 179.808 27.904-16.096-94.496-163.68h184.32zM771.552 673.12l-123.616-0.48-38.080-65.984h87.84l73.856 66.464zM514.112 477.792c18.912 0 34.208 15.328 34.208 34.24s-15.328 34.24-34.208 34.24-34.24-15.328-34.24-34.24c0-18.944 15.36-34.24 34.24-34.24zM188.48 673.12l74.464-66.464h309.728l38.016 65.824-422.208 0.64z" />
<glyph unicode="&#xe649;" glyph-name="trophy" d="M832 768v128h-640v-128h-192v-128c0-106.038 85.958-192 192-192 20.076 0 39.43 3.086 57.62 8.802 46.174-66.008 116.608-113.796 198.38-130.396v-198.406h-64c-70.694 0-128-57.306-128-128h512c0 70.694-57.306 128-128 128h-64v198.406c81.772 16.6 152.206 64.386 198.38 130.396 18.19-5.716 37.544-8.802 57.62-8.802 106.042 0 192 85.962 192 192v128h-192zM192 524c-63.962 0-116 52.038-116 116v64h116v-64c0-40.186 7.43-78.632 20.954-114.068-6.802-1.246-13.798-1.932-20.954-1.932zM948 640c0-63.962-52.038-116-116-116-7.156 0-14.152 0.686-20.954 1.932 13.524 35.436 20.954 73.882 20.954 114.068v64h116v-64z" />
<glyph unicode="&#xe64a;" glyph-name="podium" d="M704 512v256h-384v-192h-320v-512h1024v448h-320zM256 256h-128v-64h128v-64h-192v192h128v64h-128v64h192v-192zM576 320h-64v256h-64v64h128v-320zM960 128h-192v64h128v64h-128v64h128v64h-128v64h192v-320z" />
<glyph unicode="&#xe64b;" glyph-name="google" d="M522.2 521.2v-175.6h290.4c-11.8-75.4-87.8-220.8-290.4-220.8-174.8 0-317.4 144.8-317.4 323.2s142.6 323.2 317.4 323.2c99.4 0 166-42.4 204-79l139 133.8c-89.2 83.6-204.8 134-343 134-283 0-512-229-512-512s229-512 512-512c295.4 0 491.6 207.8 491.6 500.2 0 33.6-3.6 59.2-8 84.8l-483.6 0.2z" />
<glyph unicode="&#xe64c;" glyph-name="popup" d="M1024 960h-768v-256c-92.992 0-256 0-256 0v-768h768v256h256v768zM640 64h-512v384h128v-256h384c0-57.248 0-128 0-128zM896 320h-512v384h512v-384z" />
<glyph unicode="&#xe64d;" glyph-name="pencil" d="M965.536 718.656l-10.048-10.048-183.232 183.328 10.016 10.016c0 0 43.872 58.016 106.272 58.016 27.488 0 58.624-11.296 91.168-43.84 107.328-107.328-14.176-197.472-14.176-197.472zM895.328 648.416l-623.968-624.192-271.36-88.224 88.192 271.52v0.096h0.064l623.872 624.16 8.064-8.096M88.32 24.352l135.584 39.008-92.608 98.624-42.976-137.632z" />
<glyph unicode="&#xe64e;" glyph-name="blocked" d="M874.038 822.838c-96.704 96.704-225.278 149.962-362.038 149.962s-265.334-53.258-362.038-149.962-149.962-225.278-149.962-362.038c0-136.76 53.258-265.334 149.962-362.038s225.278-149.962 362.038-149.962c136.76 0 265.334 53.258 362.038 149.962s149.962 225.278 149.962 362.038c0 136.76-53.258 265.334-149.962 362.038zM512 921.6c129.637 0 246.922-53.832 330.733-140.29l-695.024-602.354c-60.461 77.966-96.509 175.768-96.509 281.843 0 254.086 206.714 460.8 460.8 460.8zM512 0c-129.637 0-246.922 53.832-330.733 140.29l695.024 602.354c60.462-77.968 96.509-175.77 96.509-281.843 0-254.086-206.714-460.8-460.8-460.8z" />
<glyph unicode="&#xe64f;" glyph-name="checkbox-checked" d="M0 960v-1024h1024v1024h-1024zM960 0h-896v896h896v-896zM768 736l-320-320-192 192-128-128 320-320 448 448-128 128z" />
<glyph unicode="&#xe650;" glyph-name="quote-right" d="M799 384c-123.712 0-224 100.29-224 224 0 123.712 100.288 224 224 224s224-100.288 224-224l1-32c0-247.424-200.576-448-448-448v128c85.474 0 165.834 33.286 226.274 93.726 11.634 11.636 22.252 24.016 31.83 37.020-11.438-1.8-23.16-2.746-35.104-2.746zM223 384c-123.71 0-224 100.29-224 224 0 123.712 100.29 224 224 224s224-100.288 224-224l1-32c0-247.424-200.576-448-448-448v128c85.474 0 165.834 33.286 226.274 93.726 11.636 11.636 22.254 24.016 31.832 37.020-11.44-1.8-23.16-2.746-35.106-2.746z" />
<glyph unicode="&#xe651;" glyph-name="quote-left" d="M225 512c123.712 0 224-100.29 224-224 0-123.712-100.288-224-224-224s-224 100.288-224 224l-1 32c0 247.424 200.576 448 448 448v-128c-85.474 0-165.834-33.286-226.274-93.726-11.634-11.636-22.252-24.016-31.83-37.020 11.438 1.8 23.16 2.746 35.104 2.746zM801 512c123.71 0 224-100.29 224-224 0-123.712-100.29-224-224-224s-224 100.288-224 224l-1 32c0 247.424 200.576 448 448 448v-128c-85.474 0-165.834-33.286-226.274-93.726-11.636-11.636-22.254-24.016-31.832-37.020 11.44 1.8 23.16 2.746 35.106 2.746z" />
<glyph unicode="&#xe652;" glyph-name="cmd" d="M800 384c-34.5 0-66.812-8.438-96-22.376v172.75c29.188-13.936 61.5-22.374 96-22.374 123.688 0 224 100.282 224 224s-100.312 224-224 224-224-100.282-224-224v-96h-128v96c0 123.718-100.312 224-224 224s-224-100.282-224-224 100.312-224 224-224c34.5 0 66.812 8.438 96 22.376v-172.75c-29.188 13.936-61.5 22.374-96 22.374-123.688 0-224-100.282-224-224s100.312-224 224-224 224 100.282 224 224v96h128v-96c0-123.718 100.312-224 224-224s224 100.282 224 224-100.312 224-224 224zM800 832c53 0 96-42.968 96-96s-43-96-96-96-96 42.968-96 96 43 96 96 96zM224 64c-53 0-96 42.968-96 96s43 96 96 96 96-42.968 96-96-43-96-96-96zM224 640c-53 0-96 42.968-96 96s43 96 96 96 96-42.968 96-96-43-96-96-96zM576 384h-128v128h128v-128zM800 64c-53 0-96 42.968-96 96s43 96 96 96 96-42.968 96-96-43-96-96-96z" />
<glyph unicode="&#xe653;" glyph-name="terminal" d="M0 896v-896h1024v896h-1024zM960 64h-896v768h896v-768zM896 768h-768v-640h768v640zM448 448h-64v-64h-64v-64h-64v64h64v64h64v64h-64v64h-64v64h64v-64h64v-64h64v-64zM704 320h-192v64h192v-64z" />
<glyph unicode="&#xe654;" glyph-name="finder" d="M992 64h-391q15-62 39-128h-64q-27 38-45 128h-499q-13 0-22.5 9.5t-9.5 22.5v704q0 13 9.5 22.5t22.5 9.5h488q36 59 88 128h64q-11-18-38.5-61t-42.5-67h401q13 0 22.5-9.5t9.5-22.5v-704q0-13-9.5-22.5t-22.5-9.5zM64 768v-640h457q-4 32-7 64h-2q-150 0-320 64v64q156-64 320-64 0 62 40 128h-136q-13 0-22.5 9.5t-9.5 22.5v0q0 169 99 352h-419zM960 768h-407q-95-170-104-320h159q13 0 22.5-9.5t9.5-22.5q0-23-23-30-39-63-41-127 134 11 256 61v-64q-132-50-253-61 3-35 8-67h373v640zM736 512q-13 0-22.5 9.5t-9.5 22.5v128q0 13 9.5 22.5t22.5 9.5 22.5-9.5 9.5-22.5v-128q0-13-9.5-22.5t-22.5-9.5zM288 512q-13 0-22.5 9.5t-9.5 22.5v128q0 13 9.5 22.5t22.5 9.5 22.5-9.5 9.5-22.5v-128q0-13-9.5-22.5t-22.5-9.5z" />
<glyph unicode="&#xe655;" glyph-name="bookmark" d="M192 960v-1024l320 320 320-320v1024z" />
<glyph unicode="&#xe656;" glyph-name="star" d="M1024 562.95l-353.78 51.408-158.22 320.582-158.216-320.582-353.784-51.408 256-249.538-60.432-352.352 316.432 166.358 316.432-166.358-60.434 352.352 256.002 249.538z" />
<glyph unicode="&#xe657;" glyph-name="star-half" d="M1024 562.95l-353.78 51.408-158.22 320.582-158.216-320.582-353.784-51.408 256-249.538-60.432-352.352 316.432 166.358 316.432-166.358-60.434 352.352 256.002 249.538zM512 206.502l-0.942-0.496 0.942 570.768 111.736-226.396 249.836-36.304-180.788-176.222 42.678-248.83-223.462 117.48z" />
<glyph unicode="&#xe658;" glyph-name="star-empty" d="M1024 562.95l-353.78 51.408-158.22 320.582-158.216-320.582-353.784-51.408 256-249.538-60.432-352.352 316.432 166.358 316.432-166.358-60.434 352.352 256.002 249.538zM512 206.502l-223.462-117.48 42.676 248.83-180.786 176.222 249.84 36.304 111.732 226.396 111.736-226.396 249.836-36.304-180.788-176.222 42.678-248.83-223.462 117.48z" />
<glyph unicode="&#xe659;" glyph-name="yahoo" d="M848 320l-14.858 416.020c-0.628 17.59 13.258 31.98 30.858 31.98h128c17.6 0 29.468-14.176 26.376-31.502l-74.376-416.498zM960 184c0-30.8-25.2-56-56-56h-16c-30.8 0-56 25.2-56 56v16c0 30.8 25.2 56 56 56h16c30.8 0 56-25.2 56-56v-16zM384 768c-212.078 0-384-143.268-384-320 0-176.73 171.922-320 384-320s384 143.27 384 320c0 176.732-171.922 320-384 320zM640 512h-74.262l-117.738-117.74v-74.26h96v-64h-256v64h96v74.26l-181.74 181.74h-42.062v64h191.606v-64h-42.064l106.26-106.26 32 32v74.26h192v-64z" />
<glyph unicode="&#xe65a;" glyph-name="eye" d="M512 736c-223.318 0-416.882-130.042-512-320 95.118-189.958 288.682-320 512-320 223.314 0 416.878 130.042 512 320-95.116 189.958-288.686 320-512 320zM764.45 566.296c60.162-38.374 111.142-89.774 149.434-150.296-38.292-60.522-89.274-111.922-149.436-150.298-75.594-48.216-162.89-73.702-252.448-73.702-89.56 0-176.856 25.486-252.45 73.704-60.16 38.372-111.14 89.772-149.434 150.296 38.292 60.524 89.274 111.924 149.434 150.296 3.918 2.5 7.876 4.922 11.858 7.3-9.958-27.328-15.408-56.822-15.408-87.596 0-141.384 114.616-256 256-256s256 114.616 256 256c0 30.774-5.45 60.268-15.408 87.598 3.98-2.378 7.938-4.802 11.858-7.302zM512 518c0-53.020-42.98-96-96-96s-96 42.98-96 96 42.98 96 96 96 96-42.98 96-96z" />
<glyph unicode="&#xe65b;" glyph-name="wordpress" d="M768 768q0-14 1-24.5t4.5-21 6-17 10-17 10.5-15 14.5-18.5 16.5-19q22-28 28.5-45.5t1.5-40.5q-7-34-16-60l-77-202-83 188q-9 22-37 117.5t-28 102.5q0 14 10 21 22 18 42 19v32h-288v-32q9-1 14-6t9.5-11.5 7.5-9.5q14-12 33-58l32-107-64-256-132 349q-20 51-20 62t11 19q24 18 45 18v32h-207q71 90 175.5 141t223.5 51q95 0 182-33.5t156-94.5q-39 0-60.5-16t-21.5-48zM66 699q25-29 60-123l194-512h64l128 384 160-384h64l151 390q6 17 24 53.5t30.5 70 15.5 60.5q3 40 3 58 64-116 64-248 0-139-68.5-257t-186.5-186.5-257-68.5q-104 0-199 40.5t-163.5 109-109 163.5-40.5 199q0 134 66 251z" />
<glyph unicode="&#xe65c;" glyph-name="podcast" d="M1024 448c0 282.77-229.23 512-512 512s-512-229.23-512-512c0-220.054 138.836-407.664 333.686-480.068l-13.686-31.932h384l-13.686 31.932c194.85 72.404 333.686 260.014 333.686 480.068zM486.79 325.174c-22.808 9.788-38.79 32.436-38.79 58.826 0 35.346 28.654 64 64 64s64-28.654 64-64c0-26.39-15.978-49.044-38.786-58.834l-25.214 58.834-25.21-58.826zM538.268 322.708c58.092 12.118 101.732 63.602 101.732 125.292 0 70.694-57.306 128-128 128-70.692 0-128-57.306-128-128 0-61.692 43.662-113.122 101.76-125.228l-74.624-174.122c-91.23 39.15-155.136 129.784-155.136 235.35 0 141.384 114.616 268 256 268s256-126.616 256-268c0-105.566-63.906-196.2-155.136-235.35l-74.596 174.058zM688.448-27.708l-73.924 172.486c126.446 42.738 217.476 162.346 217.476 303.222 0 176.73-143.268 320-320 320-176.73 0-320-143.27-320-320 0-140.876 91.030-260.484 217.476-303.222l-73.924-172.486c-159.594 68.488-271.386 227.034-271.386 411.708 0 247.332 200.502 459.834 447.834 459.834s447.834-212.502 447.834-459.834c0-184.674-111.792-343.22-271.386-411.708z" />
<glyph unicode="&#xe65d;" glyph-name="connection" horiz-adv-x="1280" d="M640 384c105.87 0 201.87-43.066 271.402-112.598l-90.468-90.468c-46.354 46.356-110.356 75.066-180.934 75.066s-134.578-28.71-180.934-75.066l-90.468 90.468c69.532 69.532 165.532 112.598 271.402 112.598zM187.452 452.548c120.88 120.88 281.598 187.452 452.548 187.452s331.668-66.572 452.55-187.452l-90.51-90.508c-96.706 96.704-225.28 149.96-362.040 149.96-136.762 0-265.334-53.256-362.038-149.962l-90.51 90.51zM988.784 825.562c106.702-45.132 202.516-109.728 284.782-191.996v0l-90.508-90.508c-145.056 145.056-337.92 224.942-543.058 224.942-205.14 0-398-79.886-543.058-224.942l-90.51 90.51c82.268 82.266 178.082 146.862 284.784 191.994 110.504 46.738 227.852 70.438 348.784 70.438s238.278-23.7 348.784-70.438zM576 64c0 35.346 28.654 64 64 64s64-28.654 64-64c0-35.346-28.654-64-64-64s-64 28.654-64 64z" />
<glyph unicode="&#xe65e;" glyph-name="volume-up" d="M874 86l-45 45q62 62 96.5 143.5t34.5 173-34.5 173-96.5 143.5l45 46q71-71 110.5-164.5t39.5-198-39.5-198-110.5-163.5zM761 199l-45 45q84 84 84 203.5t-84 203.5l45 45q49-48 76-112.5t27-136-27-136-76-112.5zM565-52l-245 243v512l245 244q30 30 75-16v-968q-45-45-75-15zM256 191h-192q-27 0-45.5 19t-18.5 45v385q0 26 18.5 45t45.5 19h192v-513z" />
<glyph unicode="&#xe65f;" glyph-name="volume-off" d="M1014 903l-957-957q-10-10-24-10t-23.5 9.5-9.5 23.5 10 24l957 957q10 10 24 10t23.5-9.5 9.5-23.5-10-24zM448 704l245 243q30 30 75-16v-54l-320-319v146zM128 256v384q0 26 19 45t45 19h192v-210l-253-254q-3 8-3 16zM768-37q-45-45-75-14l-245 243v18l320 320v-567z" />
<glyph unicode="&#xe660;" glyph-name="404" d="M512-64q-104 0-199 40.5t-163.5 109-109 163.5-40.5 199 40.5 199 109 163.5 163.5 109 199 40.5 199-40.5 163.5-109 109-163.5 40.5-199-40.5-199-109-163.5-163.5-109-199-40.5zM320 544q0 13-9.5 22.5t-22.5 9.5-22.5-9.5-9.5-22.5v-96h-64v96q0 13-9.5 22.5t-22.5 9.5-22.5-9.5-9.5-22.5v-128q0-12 7.5-20.5t18.5-10.5q2-1 6-1h96v-96q0-13 9.5-22.5t22.5-9.5 22.5 9.5 9.5 22.5v256zM640 512q0 26-19 45t-45 19h-128q-26 0-45-19t-19-45v-192q0-27 19-45.5t45-18.5h128q26 0 45 18.5t19 45.5v192zM864 576q-13 0-22.5-9.5t-9.5-22.5v-96h-64v96q0 13-9.5 22.5t-22.5 9.5-22.5-9.5-9.5-22.5v-128q0-12 7.5-20.5t18.5-10.5q2-1 6-1h96v-96q0-13 9.5-22.5t22.5-9.5 22.5 9.5 9.5 22.5v256q0 13-9.5 22.5t-22.5 9.5zM448 512h128v-192h-128v192z" />
<glyph unicode="&#xe661;" glyph-name="paypal" d="M930 651.4c-47.8-212.2-195.4-324.2-428-324.2h-77.4l-53.8-341.6h-64.8l-3.4-22c-2.2-14.6 9-27.6 23.6-27.6h165.6c19.6 0 36.2 14.2 39.4 33.6l1.6 8.4 31.2 197.8 2 10.8c3 19.4 19.8 33.6 39.4 33.6h24.6c160.4 0 286 65.2 322.8 253.6 13.8 71.6 8.6 132.4-22.8 177.6zM831 882.8c-47.4 54-133.2 77.2-242.8 77.2h-318.2c-22.4 0-41.6-16.2-45-38.4l-132.6-840.4c-2.6-16.6 10.2-31.6 27-31.6h196.6l49.4 313-1.6-9.8c3.4 22.2 22.4 38.4 44.8 38.4h93.4c183.4 0 327 74.4 369 290 1.2 6.4 2.4 12.6 3.2 18.6 12.4 79.6 0 134-43.2 183z" />
<glyph unicode="&#xe662;" glyph-name="mobile" d="M736 960h-448c-52.8 0-96-43.2-96-96v-832c0-52.8 43.2-96 96-96h448c52.8 0 96 43.2 96 96v832c0 52.8-43.2 96-96 96zM384 912h256v-32h-256v32zM512 0c-35.346 0-64 28.654-64 64s28.654 64 64 64 64-28.654 64-64-28.654-64-64-64zM768 192h-512v640h512v-640z" />
<glyph unicode="&#xe663;" glyph-name="desktop" d="M960 192c0 0-264 0-320 0s64-192 64-192c0-35.328-28.672-64-64-64h-256c-35.328 0-64 28.672-64 64 0 0 121.984 192 64 192s-320 0-320 0c-35.328 0-64 28.672-64 64v640c0 35.328 28.672 64 64 64h896c35.328 0 64-28.672 64-64v-640c0-35.328-28.672-64-64-64zM512 224c35.328 0 64 28.672 64 64s-28.672 64-64 64-64-28.672-64-64 28.672-64 64-64zM960 832c0 35.328-28.672 64-64 64h-768c-35.328 0-64-28.672-64-64v-384c0-35.328 28.672-64 64-64h768c35.328 0 64 28.672 64 64v384z" />
<glyph unicode="&#xe664;" glyph-name="login" d="M384 426.667h-320v128h320v128l192-192-192-192zM1024 938.667v-832l-384-192v192h-384v256h64v-192h320v576l256 128h-576v-256h-64v320z" />
<glyph unicode="&#xe665;" glyph-name="logout" d="M768 320v128h-320v128h320v128l192-192zM704 384v-256h-320v-192l-384 192v832h704v-320h-64v256h-512l256-128v-576h256v192z" />
<glyph unicode="&#xe666;" glyph-name="food" d="M224 960c-106.040 0-192-100.288-192-224 0-105.924 63.022-194.666 147.706-217.998l-31.788-518.124c-2.154-35.132 24.882-63.878 60.082-63.878h32c35.2 0 62.236 28.746 60.082 63.878l-31.788 518.124c84.684 23.332 147.706 112.074 147.706 217.998 0 123.712-85.96 224-192 224zM869.334 960l-53.334-320h-40l-26.666 320h-26.668l-26.666-320h-40l-53.334 320h-26.666v-416c0-17.672 14.326-32 32-32h83.338l-31.42-512.122c-2.154-35.132 24.882-63.878 60.082-63.878h32c35.2 0 62.236 28.746 60.082 63.878l-31.42 512.122h83.338c17.674 0 32 14.328 32 32v416h-26.666z" />
<glyph unicode="&#xe667;" glyph-name="facebook-circled" d="M512 960c282.77 0 512-229.23 512-512 0-261.094-195.438-476.53-448-508.026v380.026h176l16 128h-192v64c0 35.346 28.654 64 64 64h128v128h-128c-106.040 0-192-85.96-192-192v-64h-96v-128h96v-380.026c-252.562 31.496-448 246.932-448 508.026 0 282.77 229.23 512 512 512z" />
<glyph unicode="&#xe668;" glyph-name="twitter-circled" d="M512 960c-282.77 0-512-229.23-512-512v0c0-282.77 229.23-512 512-512v0c282.77 0 512 229.23 512 512v0c0 282.77-229.23 512-512 512v0zM204.8 762.2h183.3l158.8-231.1 198.6 231.1h54.2l-228.7-266h-0.7l248.9-362.4h-182.9l-167.6 244-209.8-244h-54.1l240.2 278.9-240.2 349.5zM278.8 721.3l217.8-311.4v-0.3l165.9-237h83.4l-383.7 548.7h-83.4z" />
<glyph unicode="&#xe669;" glyph-name="rss-rect" d="M832.006 928h-639.988c-88.009 0-160.018-72.011-160.018-160.020v-639.964c0-88.063 72.011-160.016 160.020-160.016h639.986c88.009 0 159.994 71.951 159.994 160.016v639.964c0 88.009-71.985 160.020-159.994 160.020zM293.51 148.705c-44.972 0-81.51 36.274-81.51 81.214 0 44.704 36.536 81.386 81.51 81.386 45.148 0 81.619-36.683 81.619-81.386-0.002-44.94-36.473-81.214-81.619-81.214zM498.376 148.004c0 76.697-29.82 148.892-83.869 202.916-54.107 54.141-125.977 84.024-202.41 84.024v117.362c222.799 0 404.181-181.352 404.181-404.301l-117.902-0.002zM706.651 148.004c0 272.871-221.867 494.944-494.415 494.944v117.42c337.502 0 612.137-274.804 612.137-612.368l-117.722 0.004z" />
<glyph unicode="&#xe66a;" glyph-name="rss-circled" d="M512 960c-282.77 0-512-229.23-512-512s229.23-512 512-512 512 229.23 512 512-229.23 512-512 512zM320 192c-35.346 0-64 28.654-64 64s28.654 64 64 64 64-28.654 64-64-28.654-64-64-64zM496 192c0 132.336-107.664 240-240 240v96c185.272 0 336-150.728 336-336h-96zM688 192c0 115.39-44.936 223.876-126.53 305.47s-190.078 126.53-305.47 126.53v96c141.034 0 273.626-54.922 373.354-154.648 99.724-99.726 154.646-232.318 154.646-373.352h-96z" />
<glyph unicode="&#xe66b;" glyph-name="tumblr" d="M832.044 928h-640.024c-88.011 0-160.018-72.013-160.018-160.018v-639.962c0-88.067 72.008-160.020 160.018-160.020h640.024c88.003 0 159.956 71.953 159.956 160.020v639.964c-0.008 88.003-71.961 160.016-159.956 160.016zM717.984 154.855c-28.268-13.301-53.933-22.676-76.875-28.067-22.965-5.334-47.775-8.023-74.439-8.023-30.293 0-48.165 3.804-71.426 11.426-23.257 7.676-43.125 18.63-59.531 32.692-16.461 14.183-27.831 29.248-34.187 45.182-6.36 15.941-9.521 39.086-9.521 69.379v232.314h-89.996v93.812c26.010 8.438 56.19 20.563 74.704 36.328 18.6 15.818 33.486 34.742 44.704 56.891 11.254 22.093 18.984 50.274 23.205 84.437h94.219v-153.227h153.161v-118.243h-153.167v-169.864c0-38.438-0.495-60.587 3.577-71.484 4.043-10.837 14.181-22.087 25.221-28.594 14.678-8.79 31.41-13.181 50.274-13.181 33.549 0 66.917 10.899 100.078 32.696v-104.475z" />
<glyph unicode="&#xe66c;" glyph-name="gift" d="M771.516 640c18.126 12.88 35.512 27.216 51.444 43.148 33.402 33.402 55.746 74.5 62.912 115.722 7.858 45.186-3.672 87.14-31.63 115.1-22.3 22.298-52.51 34.086-87.364 34.086-49.632 0-101.922-23.824-143.46-65.362-66.476-66.476-105.226-158.238-126.076-223.722-15.44 65.802-46.206 154.644-106.018 214.458-32.094 32.092-73.114 48.57-111.846 48.57-31.654 0-61.78-11.004-84.26-33.486-49.986-49.988-43.232-137.786 15.086-196.104 20.792-20.792 45.098-38.062 70.72-52.412h-217.024v-256h64v-448h768v448.002h64v256h-188.484zM674.326 831.782c27.724 27.724 62.322 44.274 92.55 44.274 10.7 0 25.708-2.254 36.45-12.998 26.030-26.028 11.412-86.308-31.28-128.998-43.946-43.946-103.060-74.168-154.432-94.060h-50.672c18.568 57.548 52.058 136.456 107.384 191.782zM233.934 799.11c-0.702 9.12-0.050 26.248 12.196 38.494 10.244 10.244 23.788 12.396 33.348 12.396v0c21.258 0 43.468-10.016 60.932-27.48 33.872-33.872 61.766-87.772 80.668-155.876 0.51-1.84 1.008-3.67 1.496-5.486-1.816 0.486-3.646 0.984-5.486 1.496-68.104 18.904-122.002 46.798-155.874 80.67-15.828 15.826-25.77 36.16-27.28 55.786zM448 0h-256v416h256v-416zM448 448h-320v128h320v-128zM832 0h-256v416h256v-416zM896 448h-320v128h320v-128z" />
<glyph unicode="&#xe66d;" glyph-name="movie" d="M895.264 704h-126.368l127.104 127.488-125.632 128.512h-178.112l127.616-127.488-130.752-128.512h-151.136l129.888 127.488-128.384 128.512h-180.992l127.488-127.488-130.72-128.512h-128.256l129.984 127.488-128.48 128.512h-128.512v-1024h1024v1024h-125.504l125.504-128-128.736-128zM896 64h-768v128h768v-128zM896 320h-768v128h768v-128z" />
<glyph unicode="&#xe66e;" glyph-name="attach" d="M665.832 632.952l-64.952 64.922-324.81-324.742c-53.814-53.792-53.814-141.048 0-194.844 53.804-53.792 141.060-53.792 194.874 0l389.772 389.708c89.714 89.662 89.714 235.062 0 324.726-89.666 89.704-235.112 89.704-324.782 0l-409.23-409.178c-0.29-0.304-0.612-0.576-0.876-0.846-125.102-125.096-125.102-327.856 0-452.906 125.054-125.056 327.868-125.056 452.988 0 0.274 0.274 0.516 0.568 0.82 0.876l0.032-0.034 279.332 279.292-64.986 64.92-279.33-279.262c-0.296-0.268-0.564-0.57-0.846-0.844-89.074-89.058-233.98-89.058-323.076 0-89.062 89.042-89.062 233.922 0 322.978 0.304 0.304 0.604 0.582 0.888 0.846l-0.046 0.060 409.28 409.166c53.712 53.738 141.144 53.738 194.886 0 53.712-53.734 53.712-141.148 0-194.84l-389.772-389.7c-17.936-17.922-47.054-17.922-64.972 0-17.894 17.886-17.894 47.032 0 64.92l324.806 324.782z" />
<glyph unicode="&#xe66f;" glyph-name="videocam" d="M1024 128v-8q0-16-0.5-23t-3-16.5-9.5-13-19-3.5l-224 149v-149q0-26-19-45t-45-19h-576q-27 0-45.5 18.5t-18.5 45.5v384q0 26 18.5 45t45.5 19h576q26 0 45-19t19-45v-149l224 149q12 0 19-3.5t9.5-13 3-16.5 0.5-23v-264zM0 703.5q0 79.5 56 136t135.5 56.5 136-56 56.5-136-56.5-136-136-56-135.5 56-56 135.5zM448 703.5q0 79.5 56 136t135.5 56.5 136-56 56.5-136-56.5-136-136-56-135.5 56-56 135.5z" />
<glyph unicode="&#xe670;" glyph-name="list" d="M998.4 153.6h-768c-14.138 0-25.6 11.461-25.6 25.6s11.462 25.6 25.6 25.6h768c14.139 0 25.6-11.461 25.6-25.6s-11.461-25.6-25.6-25.6zM998.4 409.6h-768c-14.138 0-25.6 11.461-25.6 25.6s11.462 25.6 25.6 25.6h768c14.139 0 25.6-11.461 25.6-25.6s-11.461-25.6-25.6-25.6zM998.4 665.6h-768c-14.138 0-25.6 11.462-25.6 25.6s11.462 25.6 25.6 25.6h768c14.139 0 25.6-11.462 25.6-25.6s-11.461-25.6-25.6-25.6zM76.8 614.4c-42.347 0-76.8 34.453-76.8 76.8s34.453 76.8 76.8 76.8 76.8-34.453 76.8-76.8-34.453-76.8-76.8-76.8zM76.8 716.8c-14.115 0-25.6-11.485-25.6-25.6s11.485-25.6 25.6-25.6 25.6 11.485 25.6 25.6-11.485 25.6-25.6 25.6zM76.8 358.4c-42.347 0-76.8 34.451-76.8 76.8 0 42.347 34.453 76.8 76.8 76.8s76.8-34.453 76.8-76.8c0-42.349-34.453-76.8-76.8-76.8zM76.8 460.8c-14.115 0-25.6-11.485-25.6-25.6s11.485-25.6 25.6-25.6 25.6 11.485 25.6 25.6-11.485 25.6-25.6 25.6zM76.8 102.4c-42.347 0-76.8 34.451-76.8 76.8s34.453 76.8 76.8 76.8 76.8-34.451 76.8-76.8-34.453-76.8-76.8-76.8zM76.8 204.8c-14.115 0-25.6-11.485-25.6-25.6s11.485-25.6 25.6-25.6 25.6 11.485 25.6 25.6-11.485 25.6-25.6 25.6z" />
<glyph unicode="&#xe671;" glyph-name="equalizer" d="M128-51.2c-14.138 0-25.6 11.461-25.6 25.6v409.6c0 14.139 11.462 25.6 25.6 25.6s25.6-11.461 25.6-25.6v-409.6c0-14.139-11.462-25.6-25.6-25.6zM128 665.6c-14.138 0-25.6 11.462-25.6 25.6v256c0 14.138 11.462 25.6 25.6 25.6s25.6-11.462 25.6-25.6v-256c0-14.138-11.462-25.6-25.6-25.6zM179.2 460.8h-102.4c-42.347 0-76.8 34.453-76.8 76.8s34.453 76.8 76.8 76.8h102.4c42.347 0 76.8-34.453 76.8-76.8s-34.453-76.8-76.8-76.8zM76.8 563.2c-14.115 0-25.6-11.485-25.6-25.6s11.485-25.6 25.6-25.6h102.4c14.115 0 25.6 11.485 25.6 25.6s-11.485 25.6-25.6 25.6h-102.4zM486.4-51.2c-14.138 0-25.6 11.461-25.6 25.6v204.8c0 14.139 11.462 25.6 25.6 25.6s25.6-11.461 25.6-25.6v-204.8c0-14.139-11.462-25.6-25.6-25.6zM486.4 460.8c-14.138 0-25.6 11.462-25.6 25.6v460.8c0 14.138 11.462 25.6 25.6 25.6s25.6-11.462 25.6-25.6v-460.8c0-14.138-11.462-25.6-25.6-25.6zM537.6 256h-102.4c-42.347 0-76.8 34.453-76.8 76.8s34.453 76.8 76.8 76.8h102.4c42.347 0 76.8-34.453 76.8-76.8s-34.453-76.8-76.8-76.8zM435.2 358.4c-14.115 0-25.6-11.485-25.6-25.6s11.485-25.6 25.6-25.6h102.4c14.115 0 25.6 11.485 25.6 25.6s-11.485 25.6-25.6 25.6h-102.4zM844.8-51.2c-14.139 0-25.6 11.461-25.6 25.6v512c0 14.138 11.461 25.6 25.6 25.6s25.6-11.462 25.6-25.6v-512c0-14.139-11.461-25.6-25.6-25.6zM844.8 768c-14.139 0-25.6 11.462-25.6 25.6v153.6c0 14.138 11.461 25.6 25.6 25.6s25.6-11.462 25.6-25.6v-153.6c0-14.138-11.461-25.6-25.6-25.6zM896 563.2h-102.4c-42.347 0-76.8 34.453-76.8 76.8s34.453 76.8 76.8 76.8h102.4c42.347 0 76.8-34.453 76.8-76.8s-34.453-76.8-76.8-76.8zM793.6 665.6c-14.115 0-25.6-11.485-25.6-25.6s11.485-25.6 25.6-25.6h102.4c14.115 0 25.6 11.485 25.6 25.6s-11.485 25.6-25.6 25.6h-102.4z" />
<glyph unicode="&#xe672;" d="M128 960v-1024" />
<glyph unicode="&#xe673;" glyph-name="left-circled" d="M142.462 779.136c91.869 91.869 214.016 142.464 343.938 142.464s252.067-50.595 343.936-142.464 142.464-214.014 142.464-343.936-50.595-252.069-142.464-343.938-214.014-142.462-343.936-142.462-252.069 50.594-343.938 142.462-142.462 214.016-142.462 343.938 50.594 252.067 142.462 343.936zM486.4 0c239.97 0 435.2 195.23 435.2 435.2s-195.23 435.2-435.2 435.2c-239.97 0-435.2-195.23-435.2-435.2s195.23-435.2 435.2-435.2zM186.701 453.299l204.8 204.8c9.995 9.998 26.206 9.998 36.203 0 9.998-9.997 9.998-26.206 0-36.203l-161.101-161.096h526.997c14.138 0 25.6-11.461 25.6-25.6s-11.462-25.6-25.6-25.6h-526.997l161.096-161.101c9.998-9.995 9.998-26.206 0-36.203-4.997-4.997-11.547-7.496-18.099-7.496s-13.102 2.499-18.099 7.501l-204.8 204.8c-10 9.997-10 26.202 0 36.198z" />
<glyph unicode="&#xe674;" glyph-name="right-circled" d="M830.338 779.136c-91.869 91.869-214.016 142.464-343.938 142.464s-252.067-50.595-343.936-142.464-142.464-214.014-142.464-343.936 50.595-252.069 142.464-343.938 214.014-142.462 343.936-142.462 252.069 50.594 343.938 142.462 142.462 214.016 142.462 343.938-50.594 252.067-142.462 343.936zM486.4 0c-239.97 0-435.2 195.23-435.2 435.2s195.23 435.2 435.2 435.2c239.97 0 435.2-195.23 435.2-435.2s-195.23-435.2-435.2-435.2zM786.099 453.299l-204.8 204.8c-9.995 9.998-26.206 9.998-36.203 0-9.998-9.997-9.998-26.206 0-36.203l161.101-161.096h-526.997c-14.138 0-25.6-11.461-25.6-25.6s11.462-25.6 25.6-25.6h526.997l-161.096-161.101c-9.998-9.995-9.998-26.206 0-36.203 4.997-4.997 11.547-7.496 18.099-7.496s13.102 2.499 18.099 7.501l204.8 204.8c10 9.997 10 26.202 0 36.198z" />
<glyph unicode="&#xe675;" glyph-name="up-circled" d="M142.464 779.138c-91.869-91.869-142.464-214.016-142.464-343.938s50.595-252.067 142.464-343.936 214.014-142.464 343.936-142.464 252.069 50.595 343.938 142.464 142.462 214.014 142.462 343.936-50.594 252.069-142.462 343.938-214.016 142.462-343.938 142.462-252.067-50.594-343.936-142.462zM921.6 435.2c0-239.97-195.23-435.2-435.2-435.2s-435.2 195.23-435.2 435.2c0 239.97 195.23 435.2 435.2 435.2s435.2-195.23 435.2-435.2zM468.301 734.899l-204.8-204.8c-9.998-9.995-9.998-26.206 0-36.203 9.997-9.998 26.206-9.998 36.203 0l161.096 161.101v-526.997c0-14.138 11.461-25.6 25.6-25.6s25.6 11.462 25.6 25.6v526.997l161.101-161.096c9.995-9.998 26.206-9.998 36.203 0 4.997 4.997 7.496 11.547 7.496 18.099s-2.499 13.102-7.501 18.099l-204.8 204.8c-9.997 10-26.202 10-36.198 0z" />
<glyph unicode="&#xe676;" glyph-name="down-circled" d="M830.336 91.262c91.869 91.869 142.464 214.016 142.464 343.938s-50.595 252.067-142.464 343.936-214.014 142.464-343.936 142.464-252.069-50.595-343.938-142.464-142.462-214.014-142.462-343.936 50.594-252.069 142.462-343.938 214.016-142.462 343.938-142.462 252.067 50.594 343.936 142.462zM51.2 435.2c0 239.97 195.23 435.2 435.2 435.2s435.2-195.23 435.2-435.2c0-239.97-195.23-435.2-435.2-435.2s-435.2 195.23-435.2 435.2zM504.499 135.501l204.8 204.8c9.998 9.995 9.998 26.206 0 36.203-9.997 9.998-26.206 9.998-36.203 0l-161.096-161.101v526.997c0 14.138-11.461 25.6-25.6 25.6s-25.6-11.462-25.6-25.6v-526.997l-161.101 161.096c-9.995 9.998-26.206 9.998-36.203 0-4.997-4.997-7.496-11.547-7.496-18.099s2.499-13.102 7.501-18.099l204.8-204.8c9.997-10 26.202-10 36.198 0z" />
<glyph unicode="&#xe677;" glyph-name="angle-circled-left" d="M142.462 779.136c91.869 91.869 214.016 142.464 343.938 142.464s252.067-50.595 343.936-142.464 142.464-214.014 142.464-343.936-50.595-252.069-142.464-343.938-214.014-142.462-343.936-142.462-252.069 50.594-343.938 142.462-142.462 214.016-142.462 343.938 50.594 252.067 142.462 343.936zM486.4 0c239.97 0 435.2 195.23 435.2 435.2s-195.23 435.2-435.2 435.2c-239.97 0-435.2-195.23-435.2-435.2s195.23-435.2 435.2-435.2zM563.2 153.6c6.552 0 13.102 2.499 18.102 7.499 9.997 9.997 9.997 26.206 0 36.203l-237.898 237.898 237.898 237.898c9.997 9.998 9.997 26.206 0 36.205-9.998 9.997-26.206 9.997-36.205 0l-256-256c-9.998-9.997-9.998-26.206 0-36.203l256-256c5-5 11.55-7.499 18.102-7.499z" />
<glyph unicode="&#xe678;" glyph-name="angle-circled-right" d="M830.338 779.136c-91.869 91.869-214.016 142.464-343.938 142.464s-252.067-50.595-343.936-142.464-142.464-214.014-142.464-343.936 50.595-252.069 142.464-343.938 214.014-142.462 343.936-142.462 252.069 50.594 343.938 142.462 142.462 214.016 142.462 343.938-50.594 252.067-142.462 343.936zM486.4 0c-239.97 0-435.2 195.23-435.2 435.2s195.23 435.2 435.2 435.2c239.97 0 435.2-195.23 435.2-435.2s-195.23-435.2-435.2-435.2zM409.6 153.6c-6.552 0-13.102 2.499-18.102 7.499-9.997 9.997-9.997 26.206 0 36.203l237.898 237.898-237.898 237.898c-9.997 9.998-9.997 26.206 0 36.205 9.998 9.997 26.206 9.997 36.205 0l256-256c9.998-9.997 9.998-26.206 0-36.203l-256-256c-5-5-11.55-7.499-18.102-7.499z" />
<glyph unicode="&#xe679;" glyph-name="angle-circled-up" d="M142.464 779.138c-91.869-91.869-142.464-214.016-142.464-343.938s50.595-252.067 142.464-343.936 214.014-142.464 343.936-142.464 252.069 50.595 343.938 142.464 142.462 214.014 142.462 343.936-50.594 252.069-142.462 343.938-214.016 142.462-343.938 142.462-252.067-50.594-343.936-142.462zM921.6 435.2c0-239.97-195.23-435.2-435.2-435.2s-435.2 195.23-435.2 435.2c0 239.97 195.23 435.2 435.2 435.2s435.2-195.23 435.2-435.2zM768 358.4c0-6.552-2.499-13.102-7.499-18.102-9.997-9.997-26.206-9.997-36.203 0l-237.898 237.898-237.898-237.898c-9.998-9.997-26.206-9.997-36.205 0-9.997 9.998-9.997 26.206 0 36.205l256 256c9.997 9.998 26.206 9.998 36.203 0l256-256c5-5 7.499-11.55 7.499-18.102z" />
<glyph unicode="&#xe67a;" glyph-name="angle-circled-down" d="M830.336 91.262c91.869 91.869 142.464 214.016 142.464 343.938s-50.595 252.067-142.464 343.936-214.014 142.464-343.936 142.464-252.069-50.595-343.938-142.464-142.462-214.014-142.462-343.936 50.594-252.069 142.462-343.938 214.016-142.462 343.938-142.462 252.067 50.594 343.936 142.462zM51.2 435.2c0 239.97 195.23 435.2 435.2 435.2s435.2-195.23 435.2-435.2c0-239.97-195.23-435.2-435.2-435.2s-435.2 195.23-435.2 435.2zM204.8 512c0 6.552 2.499 13.102 7.499 18.102 9.997 9.997 26.206 9.997 36.203 0l237.898-237.898 237.898 237.898c9.998 9.997 26.206 9.997 36.205 0 9.997-9.998 9.997-26.206 0-36.205l-256-256c-9.997-9.998-26.206-9.998-36.203 0l-256 256c-5 5-7.499 11.55-7.499 18.102z" />
<glyph unicode="&#xe67b;" glyph-name="chart" d="M127.584 800h-31.584v-768h832v30.816l-799.872 1.6-0.544 735.584zM544 768c0 17.696-14.336 32-32 32h-96c-17.696 0-32-14.304-32-32v-640h160v640zM352 576c0 17.664-14.336 32-32 32h-96c-17.696 0-32-14.336-32-32v-448h160v448zM736 384c0 17.696-14.336 32-32 32h-96c-17.696 0-32-14.304-32-32v-256h160v256zM896 224h-96c-17.696 0-32-14.304-32-32v-64h160v64c0 17.696-14.336 32-32 32z" />
<glyph unicode="&#xe67c;" glyph-name="phone2" d="M832-64h-672c-35.36 0-64 28.672-64 64v768c0 35.36 28.64 64 64 64v-768c0-35.328 28.672-64 64-64h128c35.36 0 64 28.672 64 64v768h416c35.36 0 64-28.672 64-64v-768c0-35.328-28.64-64-64-64zM672 32h64v64h-64v-64zM672 128h64v64h-64v-64zM672 224h64v64h-64v-64zM672 320h64v64h-64v-64zM576 32h64v64h-64v-64zM576 128h64v64h-64v-64zM576 224h64v64h-64v-64zM576 320h64v64h-64v-64zM832 736c0 17.696-14.304 32-32 32h-288c-17.664 0-32-14.304-32-32v-128c0-17.664 14.336-32 32-32h288c17.696 0 32 14.336 32 32v128zM832 384h-64v-64h64v64zM832 288h-64v-64h64v64zM832 192h-64v-64h64v64zM832 96h-64v-64h64v64zM352 32h-128c-17.664 0-32 14.304-32 32v800c0 17.696 14.336 32 32 32h62.016v64h33.984v-64h32c17.664 0 32-14.304 32-32v-800c0-17.696-14.336-32-32-32z" />
<glyph unicode="&#xe67d;" glyph-name="video-play" d="M731.429 365.715q0 21.143-17.143 30.857l-292.571 182.857q-17.714 11.429-37.143 1.143-18.857-10.286-18.857-32v-365.714q0-21.714 18.857-32 9.143-4.571 17.714-4.571 11.429 0 19.429 5.714l292.571 182.857q17.143 9.714 17.143 30.857zM1024 365.715q0-54.857-0.571-85.714t-4.857-78-12.857-84.286q-9.143-41.714-39.429-70.286t-70.857-33.143q-126.857-14.286-383.429-14.286t-383.429 14.286q-40.571 4.571-71.143 33.143t-39.714 70.286q-8 37.143-12.286 84.286t-4.857 78-0.571 85.714 0.571 85.714 4.857 78 12.857 84.286q9.143 41.714 39.429 70.286t70.857 33.143q126.857 14.286 383.429 14.286t383.429-14.286q40.571-4.571 71.143-33.143t39.714-70.286q8-37.143 12.286-84.286t4.857-78 0.571-85.714z" />
<glyph unicode="&#xe67e;" glyph-name="youtube" horiz-adv-x="878" d="M554.857 240v-120.571q0-38.286-22.286-38.286-13.143 0-25.714 12.571v172q12.571 12.571 25.714 12.571 22.286 0 22.286-38.286zM748 239.428v-26.286h-51.429v26.286q0 38.857 25.714 38.857t25.714-38.857zM196 364h61.143v53.714h-178.286v-53.714h60v-325.143h57.143v325.143zM360.571 38.857h50.857v282.286h-50.857v-216q-17.143-24-32.571-24-10.286 0-12 12-0.571 1.714-0.571 20v208h-50.857v-223.429q0-28 4.571-41.714 6.857-21.143 33.143-21.143 27.429 0 58.286 34.857v-30.857zM605.714 123.428v112.571q0 41.714-5.143 56.571-9.714 32-40.571 32-28.571 0-53.143-30.857v124h-50.857v-378.857h50.857v27.429q25.714-31.429 53.143-31.429 30.857 0 40.571 31.429 5.143 15.429 5.143 57.143zM798.857 129.143v7.429h-52q0-29.143-1.143-34.857-4-20.571-22.857-20.571-26.286 0-26.286 39.429v49.714h102.286v58.857q0 45.143-15.429 66.286-22.286 29.143-60.571 29.143-38.857 0-61.143-29.143-16-21.143-16-66.286v-98.857q0-45.143 16.571-66.286 22.286-29.143 61.714-29.143 41.143 0 61.714 30.286 10.286 15.429 12 30.857 1.143 5.143 1.143 33.143zM451.429 650.857v120q0 39.429-24.571 39.429t-24.571-39.429v-120q0-40 24.571-40t24.571 40zM862.286 221.714q0-133.714-14.857-200-8-33.714-33.143-56.571t-58.286-26.286q-105.143-12-317.143-12t-317.143 12q-33.143 3.429-58.571 26.286t-32.857 56.571q-14.857 64-14.857 200 0 133.714 14.857 200 8 33.714 33.143 56.571t58.857 26.857q104.571 11.429 316.571 11.429t317.143-11.429q33.143-4 58.571-26.857t32.857-56.571q14.857-64 14.857-200zM292 950.857h58.286l-69.143-228v-154.857h-57.143v154.857q-8 42.286-34.857 121.143-21.143 58.857-37.143 106.857h60.571l40.571-150.286zM503.429 760.571v-100q0-46.286-16-67.429-21.143-29.143-60.571-29.143-38.286 0-60 29.143-16 21.714-16 67.429v100q0 45.714 16 66.857 21.714 29.143 60 29.143 39.429 0 60.571-29.143 16-21.143 16-66.857zM694.857 853.143v-285.143h-52v31.429q-30.286-35.429-58.857-35.429-26.286 0-33.714 21.143-4.571 13.714-4.571 42.857v225.143h52v-209.714q0-18.857 0.571-20 1.714-12.571 12-12.571 15.429 0 32.571 24.571v217.714h52z" />
<glyph unicode="&#xe67f;" glyph-name="calendar" d="M947.2 870.4h-128v25.6c0 14.138-11.461 25.6-25.6 25.6s-25.6-11.462-25.6-25.6v-25.6h-512v25.6c0 14.138-11.462 25.6-25.6 25.6s-25.6-11.462-25.6-25.6v-25.6h-128c-42.347 0-76.8-34.453-76.8-76.8v-716.8c0-42.349 34.453-76.8 76.8-76.8h870.4c42.349 0 76.8 34.451 76.8 76.8v716.8c0 42.347-34.451 76.8-76.8 76.8zM76.8 819.2h128v-76.8c0-14.138 11.462-25.6 25.6-25.6s25.6 11.462 25.6 25.6v76.8h512v-76.8c0-14.138 11.461-25.6 25.6-25.6s25.6 11.462 25.6 25.6v76.8h128c14.115 0 25.6-11.485 25.6-25.6v-128h-921.6v128c0 14.115 11.485 25.6 25.6 25.6zM947.2 51.2h-870.4c-14.115 0-25.6 11.485-25.6 25.6v537.6h921.6v-537.6c0-14.115-11.485-25.6-25.6-25.6zM384 460.8h-51.2c-14.138 0-25.6 11.461-25.6 25.6s11.462 25.6 25.6 25.6h51.2c14.138 0 25.6-11.461 25.6-25.6s-11.462-25.6-25.6-25.6zM537.6 460.8h-51.2c-14.138 0-25.6 11.461-25.6 25.6s11.462 25.6 25.6 25.6h51.2c14.139 0 25.6-11.461 25.6-25.6s-11.461-25.6-25.6-25.6zM691.2 460.8h-51.2c-14.139 0-25.6 11.461-25.6 25.6s11.461 25.6 25.6 25.6h51.2c14.139 0 25.6-11.461 25.6-25.6s-11.461-25.6-25.6-25.6zM844.8 460.8h-51.2c-14.139 0-25.6 11.461-25.6 25.6s11.461 25.6 25.6 25.6h51.2c14.139 0 25.6-11.461 25.6-25.6s-11.461-25.6-25.6-25.6zM230.4 358.4h-51.2c-14.138 0-25.6 11.461-25.6 25.6s11.462 25.6 25.6 25.6h51.2c14.138 0 25.6-11.461 25.6-25.6s-11.462-25.6-25.6-25.6zM384 358.4h-51.2c-14.138 0-25.6 11.461-25.6 25.6s11.462 25.6 25.6 25.6h51.2c14.138 0 25.6-11.461 25.6-25.6s-11.462-25.6-25.6-25.6zM537.6 358.4h-51.2c-14.138 0-25.6 11.461-25.6 25.6s11.462 25.6 25.6 25.6h51.2c14.139 0 25.6-11.461 25.6-25.6s-11.461-25.6-25.6-25.6zM691.2 358.4h-51.2c-14.139 0-25.6 11.461-25.6 25.6s11.461 25.6 25.6 25.6h51.2c14.139 0 25.6-11.461 25.6-25.6s-11.461-25.6-25.6-25.6zM844.8 358.4h-51.2c-14.139 0-25.6 11.461-25.6 25.6s11.461 25.6 25.6 25.6h51.2c14.139 0 25.6-11.461 25.6-25.6s-11.461-25.6-25.6-25.6zM230.4 256h-51.2c-14.138 0-25.6 11.461-25.6 25.6s11.462 25.6 25.6 25.6h51.2c14.138 0 25.6-11.461 25.6-25.6s-11.462-25.6-25.6-25.6zM384 256h-51.2c-14.138 0-25.6 11.461-25.6 25.6s11.462 25.6 25.6 25.6h51.2c14.138 0 25.6-11.461 25.6-25.6s-11.462-25.6-25.6-25.6zM537.6 256h-51.2c-14.138 0-25.6 11.461-25.6 25.6s11.462 25.6 25.6 25.6h51.2c14.139 0 25.6-11.461 25.6-25.6s-11.461-25.6-25.6-25.6zM691.2 256h-51.2c-14.139 0-25.6 11.461-25.6 25.6s11.461 25.6 25.6 25.6h51.2c14.139 0 25.6-11.461 25.6-25.6s-11.461-25.6-25.6-25.6zM844.8 256h-51.2c-14.139 0-25.6 11.461-25.6 25.6s11.461 25.6 25.6 25.6h51.2c14.139 0 25.6-11.461 25.6-25.6s-11.461-25.6-25.6-25.6zM230.4 153.6h-51.2c-14.138 0-25.6 11.461-25.6 25.6s11.462 25.6 25.6 25.6h51.2c14.138 0 25.6-11.461 25.6-25.6s-11.462-25.6-25.6-25.6zM384 153.6h-51.2c-14.138 0-25.6 11.461-25.6 25.6s11.462 25.6 25.6 25.6h51.2c14.138 0 25.6-11.461 25.6-25.6s-11.462-25.6-25.6-25.6zM537.6 153.6h-51.2c-14.138 0-25.6 11.461-25.6 25.6s11.462 25.6 25.6 25.6h51.2c14.139 0 25.6-11.461 25.6-25.6s-11.461-25.6-25.6-25.6zM691.2 153.6h-51.2c-14.139 0-25.6 11.461-25.6 25.6s11.461 25.6 25.6 25.6h51.2c14.139 0 25.6-11.461 25.6-25.6s-11.461-25.6-25.6-25.6zM844.8 153.6h-51.2c-14.139 0-25.6 11.461-25.6 25.6s11.461 25.6 25.6 25.6h51.2c14.139 0 25.6-11.461 25.6-25.6s-11.461-25.6-25.6-25.6z" />
<glyph unicode="&#xe680;" glyph-name="search" horiz-adv-x="951" d="M658.286 475.428q0 105.714-75.143 180.857t-180.857 75.143-180.857-75.143-75.143-180.857 75.143-180.857 180.857-75.143 180.857 75.143 75.143 180.857zM950.857 0q0-29.714-21.714-51.429t-51.429-21.714q-30.857 0-51.429 21.714l-196 195.429q-102.286-70.857-228-70.857-81.714 0-156.286 31.714t-128.571 85.714-85.714 128.571-31.714 156.286 31.714 156.286 85.714 128.571 128.571 85.714 156.286 31.714 156.286-31.714 128.571-85.714 85.714-128.571 31.714-156.286q0-125.714-70.857-228l196-196q21.143-21.143 21.143-51.429z" />
<glyph unicode="&#xe681;" glyph-name="cross-circled" d="M733.808 249.534l-208.874 185.666 208.874 185.667c10.566 9.394 11.518 25.574 2.126 36.141-9.394 10.566-25.574 11.522-36.142 2.126l-213.392-189.682-213.392 189.68c-10.568 9.392-26.749 8.44-36.141-2.126-9.394-10.566-8.442-26.749 2.126-36.141l208.874-185.666-208.875-185.666c-10.566-9.394-11.518-25.574-2.126-36.142 5.059-5.691 12.085-8.592 19.142-8.592 6.048 0 12.122 2.131 16.998 6.466l213.394 189.683 213.392-189.683c4.878-4.334 10.949-6.466 16.998-6.466 7.058 0 14.086 2.902 19.144 8.592 9.392 10.568 8.44 26.749-2.126 36.142zM486.4-51.2c-129.922 0-252.067 50.594-343.936 142.464s-142.464 214.014-142.464 343.936c0 129.923 50.595 252.067 142.464 343.936s214.013 142.464 343.936 142.464c129.922 0 252.067-50.595 343.936-142.464s142.464-214.014 142.464-343.936-50.594-252.067-142.464-343.936c-91.869-91.87-214.014-142.464-343.936-142.464zM486.4 870.4c-239.97 0-435.2-195.23-435.2-435.2s195.23-435.2 435.2-435.2 435.2 195.23 435.2 435.2-195.23 435.2-435.2 435.2z" />
<glyph unicode="&#xe682;" glyph-name="minus-ciecled" d="M830.338 779.136c-91.869 91.869-214.016 142.464-343.938 142.464s-252.067-50.595-343.936-142.464-142.464-214.014-142.464-343.936 50.595-252.069 142.464-343.938 214.014-142.462 343.936-142.462 252.069 50.594 343.938 142.462 142.462 214.016 142.462 343.938-50.594 252.067-142.462 343.936zM486.4 0c-239.97 0-435.2 195.23-435.2 435.2s195.23 435.2 435.2 435.2c239.97 0 435.2-195.23 435.2-435.2s-195.23-435.2-435.2-435.2zM793.6 409.6h-614.4c-14.138 0-25.6 11.461-25.6 25.6s11.462 25.6 25.6 25.6h614.4c14.139 0 25.6-11.461 25.6-25.6s-11.461-25.6-25.6-25.6z" />
<glyph unicode="&#xe683;" glyph-name="plus-circled" d="M830.338 779.136c-91.869 91.869-214.016 142.464-343.938 142.464s-252.067-50.595-343.936-142.464-142.464-214.014-142.464-343.936 50.595-252.069 142.464-343.938 214.014-142.462 343.936-142.462 252.069 50.594 343.938 142.462 142.462 214.016 142.462 343.938-50.594 252.067-142.462 343.936zM486.4 0c-239.97 0-435.2 195.23-435.2 435.2s195.23 435.2 435.2 435.2c239.97 0 435.2-195.23 435.2-435.2s-195.23-435.2-435.2-435.2zM793.6 460.8h-281.6v281.6c0 14.138-11.462 25.6-25.6 25.6s-25.6-11.462-25.6-25.6v-281.6h-281.6c-14.138 0-25.6-11.461-25.6-25.6s11.462-25.6 25.6-25.6h281.6v-281.6c0-14.139 11.462-25.6 25.6-25.6s25.6 11.461 25.6 25.6v281.6h281.6c14.139 0 25.6 11.461 25.6 25.6s-11.461 25.6-25.6 25.6z" />
<glyph unicode="&#xe684;" glyph-name="apple" horiz-adv-x="805" d="M796 220q-22.286-71.429-70.286-142.857-73.714-112-146.857-112-28 0-80 18.286-49.143 18.286-86.286 18.286-34.857 0-81.143-18.857-46.286-19.429-75.429-19.429-86.857 0-172 148-84 149.143-84 287.429 0 130.286 64.571 213.714 64 82.286 162.286 82.286 41.143 0 101.143-17.143 59.429-17.143 78.857-17.143 25.714 0 81.714 19.429 58.286 19.429 98.857 19.429 68 0 121.714-37.143 29.714-20.571 59.429-57.143-45.143-38.286-65.143-67.429-37.143-53.714-37.143-118.286 0-70.857 39.429-127.429t90.286-72zM581.143 890.286q0-34.857-16.571-77.714-17.143-42.857-53.143-78.857-30.857-30.857-61.714-41.143-21.143-6.286-59.429-9.714 1.714 85.143 44.571 146.857 42.286 61.143 142.857 84.571 0.571-1.714 1.429-6.286t1.429-6.286q0-2.286 0.286-5.714t0.286-5.714z" />
<glyph unicode="&#xe685;" glyph-name="windows" horiz-adv-x="951" d="M389.714 376v-372l-389.714 53.714v318.286h389.714zM389.714 800.571v-376.571h-389.714v322.857zM950.857 376v-449.143l-518.286 71.429v377.714h518.286zM950.857 877.714v-453.714h-518.286v382.286z" />
<glyph unicode="&#xe686;" glyph-name="android" horiz-adv-x="805" d="M281.714 674.857q9.143 0 15.714 6.571t6.571 15.714-6.571 15.714-15.714 6.571-15.429-6.571-6.286-15.714 6.286-15.714 15.429-6.571zM522.857 674.857q9.143 0 15.429 6.571t6.286 15.714-6.286 15.714-15.429 6.571-15.714-6.571-6.571-15.714 6.571-15.714 15.714-6.571zM58.857 569.714q24 0 41.143-17.143t17.143-41.143v-245.714q0-24.571-16.857-41.714t-41.429-17.143-41.714 17.143-17.143 41.714v245.714q0 24 17.143 41.143t41.714 17.143zM664.571 558.857v-380.571q0-26.286-18.286-44.571t-44-18.286h-42.857v-129.714q0-24.571-17.143-41.714t-41.714-17.143-41.714 17.143-17.143 41.714v129.714h-78.857v-129.714q0-24.571-17.143-41.714t-41.714-17.143q-24 0-41.143 17.143t-17.143 41.714l-0.571 129.714h-42.286q-26.286 0-44.571 18.286t-18.286 44.571v380.571h524.571zM532 790.286q61.143-31.429 97.714-87.714t36.571-123.143h-528.571q0 66.857 36.571 123.143t98.286 87.714l-40.571 74.857q-4 7.429 2.857 11.429 7.429 3.429 11.429-3.429l41.143-75.429q54.286 24 114.857 24t114.857-24l41.143 75.429q4 6.857 11.429 3.429 6.857-4 2.857-11.429zM804.571 511.428v-245.714q0-24.571-17.143-41.714t-41.714-17.143q-24 0-41.143 17.143t-17.143 41.714v245.714q0 24.571 17.143 41.429t41.143 16.857q24.571 0 41.714-16.857t17.143-41.429z" />
<glyph unicode="&#xe687;" glyph-name="linux" horiz-adv-x="878" d="M378.857 716q-6.286-0.571-8.857-6t-4.857-5.429q-2.857-0.571-2.857 2.857 0 6.857 10.857 8.571h5.714zM428.571 708q-2.286-0.571-6.571 3.714t-10 2.571q13.714 6.286 18.286-1.143 1.714-3.429-1.714-5.143zM228 464q-2.286 0.571-3.429-1.714t-2.571-7.143-3.143-7.714-5.714-7.429q-4-5.714-0.571-6.857 2.286-0.571 7.143 4t7.143 10.286q0.571 1.714 1.143 4t1.143 3.429 0.857 2.571 0.286 2.286v1.714t-0.571 1.429-1.714 1.143zM716.571 258.857q0 10.286-31.429 24 2.286 8.571 4.286 15.714t2.857 14.857 1.714 12.286 0.286 12.857-0.571 11.143-2 12.571-2.286 11.714-2.857 14.286-3.143 15.143q-5.714 27.429-26.857 58.857t-41.143 42.857q13.714-11.429 32.571-47.429 49.714-92.571 30.857-158.857-6.286-22.857-28.571-24-17.714-2.286-22 10.571t-4.571 47.714-6.571 61.143q-5.143 22.286-11.143 39.429t-11.143 26-8.857 14-7.429 8.571-4.286 4q-8 35.429-17.714 58.857t-16.857 32-13.429 18.857-8.571 22.857q-2.286 12 3.429 30.571t2.571 28.286-25.429 14.286q-8.571 1.714-25.429 10.286t-20.286 9.143q-4.571 0.571-6.286 14.857t4.571 29.143 20.571 15.429q21.143 1.714 29.143-17.143t2.286-33.143q-6.286-10.857-1.143-15.143t17.143-0.286q7.429 2.286 7.429 20.571v21.143q-2.857 17.143-7.714 28.571t-12 17.429-13.429 8.571-15.429 4.286q-61.143-4.571-50.857-76.571 0-8.571-0.571-8.571-5.143 5.143-16.857 6t-18.857-0.286-8.857 2.857q0.571 32.571-9.143 51.429t-25.714 19.429q-15.429 0.571-23.714-15.714t-9.429-34q-0.571-8.571 2-21.143t7.429-21.429 8.857-7.714q5.714 1.714 9.143 8 2.286 5.143-4 4.571-4 0-8.857 8.286t-5.429 19.143q-0.571 12.571 5.143 21.143t19.429 8q9.714 0 15.429-12t5.429-22.286-0.857-12.571q-12.571-8.571-17.714-16.571-4.571-6.857-15.714-13.429t-11.714-7.143q-7.429-8-8.857-15.429t4.286-10.286q8-4.571 14.286-11.143t9.143-10.857 10.571-7.429 20.286-3.714q26.857-1.143 58.286 8.571 1.143 0.571 13.143 4t19.714 6 16.857 7.429 12 10q5.143 8 11.429 4.571 2.857-1.714 3.714-4.857t-1.714-6.857-9.429-5.429q-11.429-3.429-32.286-12.286t-26-11.143q-25.143-10.857-40-13.143-14.286-2.857-45.143 1.143-5.714 1.143-5.143-1.143t9.714-10.857q14.286-13.143 38.286-12.571 9.714 0.571 20.571 4t20.571 8 19.143 10 17.143 9.714 14 6.857 10 1.429 4.857-6.286q0-1.143-0.571-2.571t-2.286-2.857-3.429-2.571-4.857-2.857-5.143-2.571-5.714-2.857-5.429-2.571q-16-8-38.571-25.143t-38-24.571-28-0.571q-12 6.286-36 41.714-12.571 17.714-14.286 12.571-0.571-1.714-0.571-5.714 0-14.286-8.571-32.286t-16.857-31.714-12-33.143 6.571-36q-13.143-3.429-35.714-51.429t-27.143-80.571q-1.143-10.286-0.857-39.429t-3.143-33.714q-4.571-13.714-16.571-1.714-18.286 17.714-20.571 53.714-1.143 16 2.286 32 2.286 10.857-0.571 10.286l-2.286-2.857q-20.571-37.143 5.714-94.857 2.857-6.857 14.286-16t13.714-11.429q11.429-13.143 59.429-51.714t53.143-43.714q9.143-8.571 10-21.714t-8-24.571-26-13.143q4.571-8.571 16.571-25.429t16-30.857 4-40.286q26.286 13.714 4 52.571-2.286 4.571-6 9.143t-5.429 6.857-1.143 3.429q1.714 2.857 7.429 5.429t11.429-1.429q26.286-29.714 94.857-20.571 76 8.571 101.143 49.714 13.143 21.714 19.429 17.143 6.857-3.429 5.714-29.714-0.571-14.286-13.143-52.571-5.143-13.143-3.429-21.429t13.714-8.857q1.714 10.857 8.286 44t7.714 51.429q1.143 12-3.714 42t-4.286 55.429 13.143 40.286q8.571 10.286 29.143 10.286 0.571 21.143 19.714 30.286t41.429 6 34.286-12.857zM357.714 731.428q1.714 9.714-1.429 17.143t-6.571 8.571q-5.143 1.143-5.143-4 1.143-2.857 2.857-3.429 5.714 0 4-8.571-1.714-11.429 4.571-11.429 1.714 0 1.714 1.714zM597.143 618.857q-1.143 4.571-3.714 6.571t-7.429 2.857-8.286 3.143q-2.857 1.714-5.429 4.571t-4 4.571-3.143 3.714-2.286 2.286-2.286-0.857q-8-9.143 4-24.857t22.286-18q5.143-0.571 8.286 4.571t2 11.429zM495.429 740.571q0 6.286-2.857 11.143t-6.286 7.143-5.143 1.714q-8-0.571-4-4l2.286-1.143q8-2.286 10.286-17.714 0-1.714 4.571 1.143zM526.286 873.714q0 1.143-1.429 2.857t-5.143 4-5.429 3.429q-8.571 8.571-13.714 8.571-5.143-0.571-6.571-4.286t-0.571-7.429-0.286-7.143q-0.571-2.286-3.429-6t-3.429-5.143 1.714-4.857q2.286-1.714 4.571 0t6.286 5.143 8.571 5.143q0.571 0.571 5.143 0.571t8.571 1.143 5.143 4zM849.143 107.428q11.429-6.857 17.714-14t6.857-13.714-1.429-12.857-8.857-12.571-13.429-11.143-17.143-10.571-18-9.429-18.286-8.857-15.429-7.429q-21.714-10.857-48.857-32t-43.143-36.571q-9.714-9.143-38.857-11.143t-50.857 8.286q-10.286 5.143-16.857 13.429t-9.429 14.571-12.571 11.143-26.857 5.429q-25.143 0.571-74.286 0.571-10.857 0-32.571-0.857t-33.143-1.429q-25.143-0.571-45.429-8.571t-30.571-17.143-24.857-16.286-30.571-6.571q-16.571 0.571-63.429 17.714t-83.429 24.571q-10.857 2.286-29.143 5.429t-28.571 5.143-22.571 5.429-19.143 8.286-9.714 11.143q-5.714 13.143 4 38t10.286 31.143q0.571 9.143-2.286 22.857t-5.714 24.286-2.571 20.857 6 15.429q8 6.857 32.571 8t34.286 6.857q17.143 10.286 24 20t6.857 29.143q12-41.714-18.286-60.571-18.286-11.429-47.429-8.571-19.429 1.714-24.571-5.714-7.429-8.571 2.857-32.571 1.143-3.429 4.571-10.286t4.857-10.286 2.571-9.714 0.571-12.571q0-8.571-9.714-28t-8-27.429q1.714-9.714 21.143-14.857 11.429-3.429 48.286-10.571t56.857-11.714q13.714-3.429 42.286-12.571t47.143-13.143 31.714-2.286q24.571 3.429 36.857 16t13.143 27.429-4.286 33.429-10.857 29.714-11.429 20.857q-69.143 108.571-96.571 138.286-38.857 42.286-64.571 22.857-6.286-5.143-8.571 8.571-1.714 9.143-1.143 21.714 0.571 16.571 5.714 29.714t13.714 26.857 12.571 24q4.571 12 15.143 41.143t16.857 44.571 17.143 34.857 22.286 30.857q62.857 81.714 70.857 111.429-6.857 64-9.143 177.143-1.143 51.429 13.714 86.571t60.571 59.714q22.286 12 59.429 12 30.286 0.571 60.571-7.714t50.857-23.714q32.571-24 52.286-69.429t16.857-84.286q-2.857-54.286 17.143-122.286 19.429-64.571 76-124.571 31.429-33.714 56.857-93.143t34-109.143q4.571-28 2.857-48.286t-6.857-31.714-11.429-12.571q-5.714-1.143-13.429-10.857t-15.429-20.286-23.143-19.143-34.857-8q-10.286 0.571-18 2.857t-12.857 7.714-7.714 8.857-6.571 11.714-5.143 11.143q-12.571 21.143-23.429 17.143t-16-28 4-55.429q11.429-40 0.571-111.429-5.714-37.143 10.286-57.429t41.714-18.857 48.571 20.286q33.714 28 51.143 38t59.143 24.286q30.286 10.286 44 20.857t10.571 19.714-14.286 16.286-29.429 13.429q-18.857 6.286-28.286 27.429t-8.571 41.429 8.857 27.143q0.571-17.714 4.571-32.286t8.286-23.143 11.714-16.286 12-10.857 12.286-7.429 9.429-5.429z" />
<glyph unicode="&#xe688;" glyph-name="tag" horiz-adv-x="878" d="M256 694.857q0 30.286-21.429 51.714t-51.714 21.429-51.714-21.429-21.429-51.714 21.429-51.714 51.714-21.429 51.714 21.429 21.429 51.714zM865.714 365.714q0-30.286-21.143-51.429l-280.571-281.143q-22.286-21.143-52-21.143-30.286 0-51.429 21.143l-408.571 409.143q-21.714 21.143-36.857 57.714t-15.143 66.857v237.714q0 29.714 21.714 51.429t51.429 21.714h237.714q30.286 0 66.857-15.143t58.286-36.857l408.571-408q21.143-22.286 21.143-52z" />
<glyph unicode="&#xe689;" glyph-name="tags" horiz-adv-x="1097" d="M256 694.857q0 30.286-21.429 51.714t-51.714 21.429-51.714-21.429-21.429-51.714 21.429-51.714 51.714-21.429 51.714 21.429 21.429 51.714zM865.714 365.714q0-30.286-21.143-51.429l-280.571-281.143q-22.286-21.143-52-21.143-30.286 0-51.429 21.143l-408.571 409.143q-21.714 21.143-36.857 57.714t-15.143 66.857v237.714q0 29.714 21.714 51.429t51.429 21.714h237.714q30.286 0 66.857-15.143t58.286-36.857l408.571-408q21.143-22.286 21.143-52zM1085.143 365.714q0-30.286-21.143-51.429l-280.571-281.143q-22.286-21.143-52-21.143-20.571 0-33.714 8t-30.286 25.714l268.571 268.571q21.143 21.143 21.143 51.429 0 29.714-21.143 52l-408.571 408q-21.714 21.714-58.286 36.857t-66.857 15.143h128q30.286 0 66.857-15.143t58.286-36.857l408.571-408q21.143-22.286 21.143-52z" />
<glyph unicode="&#xe68a;" glyph-name="comment" d="M0 548.57q0-99.429 68.571-183.714t186.286-133.143 257.143-48.857q40 0 82.857 4.571 113.143-100 262.857-138.286 28-8 65.143-12.571 9.714-1.143 17.429 5.143t10 16.571v0.571q1.714 2.286 0.286 6.857t-1.143 5.714-2.571 5.429l-3.429 5.143t-4 4.857-4.571 5.143q-4 4.571-17.714 19.714t-19.714 21.714-17.714 22.571-18.571 29.143-15.429 33.714-14.857 43.429q89.714 50.857 141.429 125.714t51.714 160.571q0 74.286-40.571 142t-109.143 116.857-163.429 78-198.857 28.857q-139.429 0-257.143-48.857t-186.286-133.143-68.571-183.714z" />
<glyph unicode="&#xe68b;" glyph-name="comments" d="M219.429 621.713q0-79.429 53.714-146.857t146.571-106.571 202-39.143q49.143 0 100.571 9.143 70.857-50.286 158.857-73.143 20.571-5.143 49.143-9.143h1.714q6.286 0 11.714 4.571t6.571 12q0.571 1.714 0.571 3.714t-0.286 3.714-1.143 3.429l-1.429 2.857t-2 3.143-2.286 2.857-2.571 2.857-2.286 2.571q-2.857 3.429-13.143 14.286t-14.857 16.857-12.857 16.571-14.286 22-11.714 25.143q70.857 41.143 111.429 101.143t40.571 128q0 79.429-53.714 146.857t-146.571 106.571-202 39.143-202-39.143-146.571-106.571-53.714-146.857zM0 475.427q0-68.571 40.571-128.286t111.429-100.857q-5.714-13.714-11.714-25.143t-14.286-22-12.857-16.571-14.857-16.857-13.143-14.286q-0.571-0.571-2.286-2.571t-2.571-2.857-2.286-2.857-2-3.143l-1.429-2.857t-1.143-3.429-0.286-3.714 0.571-3.714q1.714-8 7.429-12.571t12.571-4q28.571 4 49.143 9.143 88 22.857 158.857 73.143 51.429-9.143 100.571-9.143 154.857 0 269.714 75.429-33.143-2.286-50.286-2.286-92 0-176.571 25.714t-150.857 73.714q-71.429 52.571-109.714 121.143t-38.286 145.143q0 44 13.143 86.857-73.714-40.571-116.571-101.714t-42.857-131.429z" />
</font>
</defs>
</svg>
